Casta diva (Carmine Gallone, 1954) DVDRip VOSI/It

Puntuación
Sin
puntuar

Moderador: mifune

Responder
Avatar de Usuario
Lobo López
 
Mensajes: 1775
Registrado: 16 Oct 2012 15:07
Ubicación: Cuenca
Agradecido : 3942 veces
Agradecimiento recibido: 5463 veces
Contactar:

Italia Casta diva (Carmine Gallone, 1954) DVDRip VOSI/It

Mensaje por Lobo López » 25 Mar 2021 13:02

CASTA DIVA

Imagen

Imagen

FILMAFFINITY

Director: Carmine Gallone
Reparto: Antonella Lualdi, Nadia Gray, Maurice Ronet, Fausto Tozzi, Jacques Castelot, Marina Berti, Renzo Ricci, Jean Richard, Danilo Berardinelli, Paola Borboni, Manlio Busoni, Nicla Di Bruno, Lauro Gazzolo, Dante Maggio, Camillo Pilotto
Guion: Carmine Gallone, Walter Reisch, Léo Joannon, Agenore Incrocci, Furio Scarpelli, Luigi Filippo D'Amico
Fotografía: Marco Scarpelli (TECHNICOLOR)
Año: 1954
País: Italia / Francia
Duración: 94 min.
Producción: Documento Film, Franco London Films, Le Louvre Film
Género: Biografía


Argumento: Biografía del compositor Vincenzo Bellini, sus amores contrariados y su gran triunfo con la romanza del título.




ImagenImagen
ImagenImagen
ImagenImagen
ImagenImagen


Datos Técnicos:
Spoiler:
Format : Matroska
Format version : Version 4 / Version 2
File size : 1.93 GiB
Duration : 1 h 33 min
Overall bit rate : 2 952 kb/s
Encoded date : UTC 2020-08-03 16:08:47
Writing application : mkvmerge v49.0.0 ('Sick Of Losing Soulmates') 64-bit
Writing library : libebml v1.4.0 + libmatroska v1.6.1

Video
ID : 1
Format : AVC
Format/Info : Advanced Video Codec
Format profile : High@L3.1
Format settings, CABAC : Yes
Format settings, ReFrames : 10 frames
Codec ID : V_MPEG4/ISO/AVC
Duration : 1 h 33 min
Bit rate : 2 500 kb/s
Width : 718 pixels
Height : 574 pixels
Display aspect ratio : 4:3
Frame rate mode : Constant
Frame rate : 25.000 FPS
Color space : YUV
Chroma subsampling : 4:2:0
Bit depth : 8 bits
Scan type : Progressive
Bits/(Pixel*Frame) : 0.243
Stream size : 1.64 GiB (85%)
Writing library : x264 core 157 r2969 d4099dd
Encoding settings : cabac=1 / ref=10 / deblock=1:-3:-3 / analyse=0x3:0x133 / me=umh / subme=9 / psy=1 / psy_rd=1.00:0.15 / mixed_ref=1 / me_range=28 / chroma_me=1 / trellis=2 / 8x8dct=1 / cqm=0 / deadzone=21,11 / fast_pskip=0 / chroma_qp_offset=-3 / threads=8 / lookahead_threads=2 / sliced_threads=0 / nr=0 / decimate=0 / interlaced=0 / bluray_compat=0 / constrained_intra=0 / bframes=12 / b_pyramid=2 / b_adapt=2 / b_bias=0 / direct=3 / weightb=1 / open_gop=0 / weightp=2 / keyint=250 / keyint_min=25 / scenecut=40 / intra_refresh=0 / rc_lookahead=80 / rc=2pass / mbtree=1 / bitrate=2500 / ratetol=3.0 / qcomp=0.60 / qpmin=0 / qpmax=69 / qpstep=4 / cplxblur=20.0 / qblur=0.5 / vbv_maxrate=14000 / vbv_bufsize=14000 / nal_hrd=none / filler=0 / ip_ratio=1.40 / aq=1:1.00
Default : Yes
Forced : No

Audio
ID : 2
Format : AC-3
Format/Info : Audio Coding 3
Mode extension : CM (complete main)
Format settings, Endianness : Big
Codec ID : A_AC3
Duration : 1 h 33 min
Bit rate mode : Constant
Bit rate : 448 kb/s
Channel(s) : 6 channels
Channel positions : Front: L C R, Side: L R, LFE
Sampling rate : 48.0 kHz
Frame rate : 31.250 FPS (1536 spf)
Compression mode : Lossy
Stream size : 300 MiB (15%)
Language : Italian
Default : Yes
Forced : No

Text #1
ID : 3
Format : SSA
Codec ID : S_TEXT/SSA
Codec ID/Info : Sub Station Alpha
Duration : 1 h 30 min
Bit rate : 91 b/s
Count of elements : 870
Compression mode : Lossless
Stream size : 60.9 KiB (0%)
Language : English
Default : Yes
Forced : No

Text #2
ID : 4
Format : VobSub
Muxing mode : zlib
Codec ID : S_VOBSUB
Codec ID/Info : Picture based subtitle format used on DVDs
Duration : 1 h 33 min
Bit rate : 4 788 b/s
Count of elements : 1205
Stream size : 3.19 MiB (0%)
Title : HoH
Language : Italian
Default : No
Forced : No

Menu
00:00:00.000 : :Chapter 01
00:09:10.720 : :Chapter 02
00:16:52.760 : :Chapter 03
00:25:01.680 : :Chapter 04
00:35:48.280 : :Chapter 05
00:40:59.400 : :Chapter 06
00:44:52.320 : :Chapter 07
00:47:53.320 : :Chapter 08
00:50:36.720 : :Chapter 09
00:53:59.880 : :Chapter 10
01:02:19.800 : :Chapter 11
01:09:35.360 : :Chapter 12
01:14:47.560 : :Chapter 13
01:17:47.440 : :Chapter 14
01:27:03.040 : :Chapter 15


Comentario:

Gallone, en esta lujosa y suntuosa (un lujo de escasas películas italianas de la época) película fotografiada en technicolor logra una paradójica y sobria espectacularidad. Si la biografía romantizada de Bellini se convierte en una trama típica de un romanticismo desgarrado, con derecho a una mujer idealizada y eternamente casta, Gallone hace que esta excesiva dimensión dramática acabe trasladándose más a los colores, así como al soberbio, fluido y minucioso trabajo de una cámara que se acerca suavemente a los espacios menos probables, "atravesando" rejas (en una escena evocadora de Professione: reporter (1975), de Antonioni) o deslizarse hasta un personaje al otro lado de la mesa a través de los impecables decorados. No abarca ninguna concepción política más refinada de la época retratada y mucho menos la utilización de ésta para reflexionar sobre el momento contemporáneo italiano, como había hecho Visconti en su epopeya producida el año anterior, y también en color, Senso, aunque Gallone haya hecho una operación similar, y sin mayor sutileza, al servicio del fascismo, en su película más recordada, Escipión, el africano (1937). En los momentos en que se representa el canto lírico en el escenario, y no son pocos, la cámara proporciona a veces movimientos de perfecta armonía entre su movimiento, la descripción del público asistente y el espacio arquitectónico del teatro. Gallone ya había filmado la misma historia en 1935.

Cid Vasconcelos



Subtítulos en inglés y en italiano dentro del contenedor del archivo.

Copia descargada de KG.

eD2K link Casta diva (1954).mkv [1.93 Gb] 

:hi:

Avatar de Usuario
Monsieur Lange
 
Mensajes: 5559
Registrado: 13 Sep 2012 19:39
Ubicación: Cruzando las dunas
Agradecido : 2204 veces
Agradecimiento recibido: 2281 veces

Re: Casta diva (Carmine Gallone, 1954) DVDRip VOSI/It

Mensaje por Monsieur Lange » 25 Mar 2021 13:51

Gracias Lobo. Vamos con Bellini. :hi: :hi:
"...Colmar la ignorancia es postergar la escritura hasta mañana, o más bien volverla imposible..."
Gilles Deleuze: Diferencia y repetición

NACHO
 
Mensajes: 367
Registrado: 19 Oct 2012 22:33
Agradecido : 519 veces
Agradecimiento recibido: 234 veces

Re: Casta diva (Carmine Gallone, 1954) DVDRip VOSI/It

Mensaje por NACHO » 25 Mar 2021 20:33

Gracias, Lobo! Interesante aporte

rdeespana
 
Mensajes: 937
Registrado: 06 Dic 2012 03:30
Agradecido : 3635 veces
Agradecimiento recibido: 659 veces

Re: Casta diva (Carmine Gallone, 1954) DVDRip VOSI/It

Mensaje por rdeespana » 27 Mar 2021 00:15

¿Nadie sabe de una copia de calidad decente de la primera versión, 1935? La que corre por esas webs es tirando a horrorosa...

TONIOF
 
Mensajes: 65
Registrado: 10 Ene 2013 19:57
Agradecimiento recibido: 126 veces

Re: Casta diva (Carmine Gallone, 1954) DVDRip VOSI/It

Mensaje por TONIOF » 27 Mar 2021 19:57

Los subtítulos en italiano aparecen en un verde tan oscuro que es imposible leerlos. ¿Podrías arreglarlo?

Avatar de Usuario
carnicerito
 
Mensajes: 3025
Registrado: 16 Oct 2012 17:03
Agradecido : 4799 veces
Agradecimiento recibido: 3784 veces

Re: Casta diva (Carmine Gallone, 1954) DVDRip VOSI/It

Mensaje por carnicerito » 27 Mar 2021 20:35

TONIOF escribió:
27 Mar 2021 19:57
Los subtítulos en italiano aparecen en un verde tan oscuro que es imposible leerlos. ¿Podrías arreglarlo?

Comprobada en VLC las dos pistas de subtítulos, en inglés e italiano, aparecen con letra blanca y tamaños correcto.

Avatar de Usuario
tonapar1
 
Mensajes: 5749
Registrado: 16 Oct 2012 20:19
Agradecido : 1138 veces
Agradecimiento recibido: 1991 veces

Re: Casta diva (Carmine Gallone, 1954) DVDRip VOSI/It

Mensaje por tonapar1 » 29 Mar 2021 23:15

Muchas gracias por el ripeo y los subs a lobo lopez. Un saludo.

Avatar de Usuario
yojimbo
 
Mensajes: 11201
Registrado: 18 Oct 2012 14:25
Agradecido : 10567 veces
Agradecimiento recibido: 3052 veces

Re: Casta diva (Carmine Gallone, 1954) DVDRip VOSI/It

Mensaje por yojimbo » 06 May 2021 15:17

Muchas gracias, Lobo López.

Responder

Volver a “Largos Clásicos”