Sky Bride (Stephen Roberts, 1932) DVDRip VO

Puntuación
Sin
puntuar

Moderador: mifune

Responder
Avatar de Usuario
locotus
 
Mensajes: 1059
Registrado: 16 Oct 2012 18:18
Agradecido : 62 veces
Agradecimiento recibido: 6417 veces

Estados Unidos Sky Bride (Stephen Roberts, 1932) DVDRip VO

Mensaje por locotus » 11 Jun 2021 16:19

Sky Bride (1932)
Imagen

Directed by Stephen Roberts

Writing Credits:
Joseph L. Mankiewicz ... (screenplay) and
Agnes Brand Leahy ... (screenplay) and
Grover Jones ... (screenplay)
Waldemar Young ... (story)

Cast:
Richard Arlen ... Bert 'Speed' Condon
Jack Oakie ... Alec Dugan
Virginia Bruce ... Ruth Dunning
Robert Coogan ... Willie Smith
Tom Douglas ... Eddie Smith
Louise Closser Hale ... Mrs. (Ma) Smith
Harold Goodwin ... Wild Bill Adams
Charles Starrett ... Jim Carmichael
Randolph Scott ... Captain Frank Robertson
Hooper Atchley ... Investigator (uncredited)
Frances Dee ... Ruth's Friend (uncredited)

Runtime: 78 min
Sound Mix: Mono (Western Electric Noiseless Recording)
Color: Black and White
Aspect Ratio: 1.37 : 1

https://www.imdb.com/title/tt0023484/

Sinopsis:
Los pilotos de acrobacias aéreas Speed Condon, Bill Adams, and Eddie Smith viajan por el país junto a su manager
Alec Dugan, preséntandose en ferias, shows aéreos y dando paseos aéreos a los lugareños. Pero cuando el
pilotaje irresponsable de Speed termina en tragedia, deja de volar en desesperación y culpa.

Capturas:

ImagenImagenImagenImagenImagen

ImagenImagenImagenImagenImagen

Datos:

Código: Seleccionar todo

General
Unique ID                   : 299574638321374543536973069787530368698 (0xE15FFA05E11A5033799D2E1A402996BA)
Complete name               : Sky Bride 1932 DVDRip x264.mkv
Format                      : Matroska
Format version              : Version 4
File size                   : 1.34 GiB
Duration                    : 1 h 17 min
Overall bit rate            : 2 464 kb/s
Encoded date                : UTC 2017-03-20 19:02:33
Writing application         : mkvmerge v9.6.0 ('Slave To Your Mind') 64bit
Writing library             : libebml v1.3.4 + libmatroska v1.4.5

Video
ID                          : 1
Format                      : AVC
Format/Info                 : Advanced Video Codec
Format profile              : High@L4.1
Format settings             : CABAC / 9 Ref Frames
Format settings, CABAC      : Yes
Format settings, Reference  : 9 frames
Codec ID                    : V_MPEG4/ISO/AVC
Duration                    : 1 h 17 min
Bit rate                    : 2 207 kb/s
Width                       : 700 pixels
Height                      : 478 pixels
Display aspect ratio        : 4:3
Original display aspect rat : 4:3
Frame rate mode             : Constant
Frame rate                  : 23.976 (24000/1001) FPS
Color space                 : YUV
Chroma subsampling          : 4:2:0
Bit depth                   : 8 bits
Scan type                   : Progressive
Bits/(Pixel*Frame)          : 0.275
Stream size                 : 1.20 GiB (90%)
Writing library             : x264 core 142 r2479 dd79a61
Encoding settings           : cabac=1 / ref=9 / deblock=1:-2:-2 / analyse=0x3:0x133 / me=umh / subme=9 / psy=1 / psy_rd=1.00:0.00 / mixed_ref=1 / me_range=24 / chroma_me=1 / trellis=2 / 8x8dct=1 / cqm=0 / deadzone=21,11 / fast_pskip=0 / chroma_qp_offset=-2 / threads=6 / lookahead_threads=1 / sliced_threads=0 / nr=0 / decimate=1 / interlaced=0 / bluray_compat=0 / constrained_intra=0 / bframes=6 / b_pyramid=2 / b_adapt=2 / b_bias=0 / direct=3 / weightb=1 / open_gop=0 / weightp=2 / keyint=240 / keyint_min=24 / scenecut=40 / intra_refresh=0 / rc_lookahead=50 / rc=crf / mbtree=0 / crf=20.0 / qcomp=0.70 / qpmin=0 / qpmax=69 / qpstep=4 / vbv_maxrate=62500 / vbv_bufsize=78125 / crf_max=0.0 / nal_hrd=none / filler=0 / ip_ratio=1.40 / pb_ratio=1.30 / aq=2:0.85
Default                     : Yes
Forced                      : No
Color range                 : Limited
Color primaries             : BT.601 NTSC
Transfer characteristics    : BT.709
Matrix coefficients         : BT.601

Audio
ID                          : 2
Format                      : AC-3
Format/Info                 : Audio Coding 3
Commercial name             : Dolby Digital
Codec ID                    : A_AC3
Duration                    : 1 h 17 min
Bit rate mode               : Constant
Bit rate                    : 256 kb/s
Channel(s)                  : 2 channels
Channel layout              : L R
Sampling rate               : 48.0 kHz
Frame rate                  : 31.250 FPS (1536 SPF)
Compression mode            : Lossy
Stream size                 : 142 MiB (10%)
Language                    : English
Service kind                : Complete Main
Default                     : Yes
Forced                      : No
Rip de Torrenting, untouched.

Película:
eD2K link Sky Bride 1932 DVDRip x264.mkv [1.34 Gb] 
“Si no lees los periódicos estás desinformado”.
Y si los lees estás mal informado”.
Denzel Washington.

Responder

Volver a “Largos Clásicos”