Crossfire (Edward Dmytryk, 1947) Ver índice

Puntuación
7,7/10
3 votos

Encrucijada de odios

Moderador: mifune

Responder
Avatar de Usuario
chuschao
Administrador del Sitio
 
Mensajes: 5662
Registrado: 13 Sep 2012 18:40
Ubicación: En un lugar de La Alcarria.
Agradecido : 1722 veces
Agradecimiento recibido: 1315 veces

Estados Unidos Crossfire (Edward Dmytryk, 1947) Ver índice

Mensaje por chuschao » 14 Sep 2012 21:14

Índice de Ripeos: -

*Nota: Tenga en cuenta la calidad de cada ripeo para hacer la mejor elección. Haga click aquí para más información.
Imagen

Imagen


Encrucijada de odios.


Uno de los clásicos del cine-negro por méritos propios: Oscuridad física y conceptual, informaciones cruzadas y sesgadas, continuos flash-backs, fotografía cruda y contrastada, interpretación de una fisicidad descarnada, además de una profunda, profusa y despiadada critica social. Poco más hay que añadir. Y mucho que disfrutar.


Imagen

Robert
Imagen
Mitchum

Robert
Imagen
Ryan

Robert
Imagen
Young

Y la auténtica "Black Queen"
Imagen
Gloria Graham


Imagen
Imagen
¿Hay quien dé más?

eD2K link Crossfire. (Dmytryk, 1947)..avi [1.15 Gb] 

OpenSubtitles
Titles box
Subdivx

Audio español: eD2K link Crossfire%20Mp3%20LAME).mp3

Código: Seleccionar todo

File Name .........................................: Crossfire. (Dmytryk, 1947). avi.avi
File Size (in bytes) ............................: 1,231,579,136 bytes
Runtime ............................................: 1:25:20

Video Codec ...................................: XviD ISO MPEG-4
Frame Size ......................................: 704x554 (AR: 1.271)
FPS .................................................: 25.000
Video Bitrate ...................................: 1786 kb/s
Bits per Pixel ...................................: 0.183 bpp
B-VOP, N-VOP, QPel, GMC.............: [B-VOP], [], [], []

Audio Codec ...................................: 0x0055 MPEG-1 Layer 3
Sample Rate ...................................: 48000 Hz
Audio Bitrate ...................................: 128 kb/s [2 channel(s)] CBR
No. of audio streams .......................: 1
“Podré no estar de acuerdo con lo que dices, pero defenderé hasta la muerte tu derecho a decirlo”

Avatar de Usuario
Phillys
 
Mensajes: 1303
Registrado: 16 Oct 2012 15:47
Ubicación: Vigo
Agradecido : 424 veces
Agradecimiento recibido: 494 veces

Re: Crossfire (Edward Dmytryk, 1947) DVDRip VOSE + AuEs

Mensaje por Phillys » 19 Oct 2012 17:08

Me encanta Robert Ryan y sus papeles de malote.
-Da igual que mates a uno o a cien. Sólo te ahorcarán una vez.

Avatar de Usuario
quantum
 
Mensajes: 20
Registrado: 19 Oct 2012 19:00
Agradecido : 2 veces
Agradecimiento recibido: 2 veces

Re: Crossfire (Edward Dmytryk, 1947) DVDRip VOSE + AuEs

Mensaje por quantum » 19 Oct 2012 19:05

Grandiosa película... Muchísimas gracias.

Avatar de Usuario
Lari
 
Mensajes: 890
Registrado: 03 Oct 2012 18:52
Ubicación: De viaje, siempre de viaje...
Agradecido : 20 veces
Agradecimiento recibido: 9 veces

Re: Crossfire (Edward Dmytryk, 1947) DVDRip VOSE + Aud Esp

Mensaje por Lari » 11 Nov 2012 01:31

Gracias Chuschao :cool:

Avatar de Usuario
eddelon
 
Mensajes: 2298
Registrado: 28 Oct 2012 01:05
Ubicación: Buenos Aires,Argentina
Agradecido : 2274 veces
Agradecimiento recibido: 390 veces

Re: Crossfire (Edward Dmytryk, 1947) DVDRip VOSE + Aud Esp

Mensaje por eddelon » 06 Dic 2012 01:36

Mil gracias por traerla Chus,renuevo copia :up: :up:

Un cordial saludo

Avatar de Usuario
Colorado Jim
 
Mensajes: 481
Registrado: 16 Oct 2012 15:05
Agradecido : 95 veces
Agradecimiento recibido: 88 veces

Re: Crossfire (Edward Dmytryk, 1947) DVDRip VOSE + Aud Esp

Mensaje por Colorado Jim » 06 Dic 2012 09:04

Gracias, chuschao.
Hagas lo que hagas, ámalo. Ámalo como amabas la cabina del Paradiso cuando eras niño.

waterloo812
 
Mensajes: 179
Registrado: 23 Nov 2012 10:10
Agradecimiento recibido: 8 veces

Re: Crossfire (Edward Dmytryk, 1947) DVDRip VOSE + Aud Esp

Mensaje por waterloo812 » 08 Dic 2012 00:02

Muchas gracias.

Avatar de Usuario
locotus
 
Mensajes: 1059
Registrado: 16 Oct 2012 18:18
Agradecido : 62 veces
Agradecimiento recibido: 6422 veces

Estados Unidos Crossfire (Edward Dmytryk, 1947) DVDRip Dual SE

Mensaje por locotus » 02 Nov 2016 17:04

Crossfire (1947)
Imagen
Sinopsis:
Un hombre aparece muerto en su apartamento, después de haber recibido una paliza mortal. Una amiga suya le confiesa al policía encargado del caso, que, poco antes de su muerte, había visto a la víctima en compañía de tres soldados, bebiendo en un bar. Precisamente la documentación de uno de ellos había aparecido junto al cadáver. El caso se presenta sumamente denso y turbio. (FILMAFFINITY)

Publicada originalmente por Chuschao, aquí:
Crossfire

IMDB
Directed by Edward Dmytryk
Writing Credits: John Paxton ... (screenplay)
Richard Brooks ... (adapted from a novel by)
Reparto:
Robert Young ... Finlay
Robert Mitchum ... Keeley
Robert Ryan ... Montgomery
Gloria Grahame ... Ginny
Paul Kelly ... The Man
Sam Levene ... Samuels
Jacqueline White... Mary Mitchell
Steve Brodie ... Floyd
George Cooper ... Mitchell
Richard Benedict... Bill
Tom Keene ... Detective (as Richard Powers)
William Phipps ... Leroy
Lex Barker ... Harry
Marlo Dwyer ... Miss Lewis

Runtime: 86 min
Sound Mix: Mono (RCA Sound System)
Color: Black and White
Aspect Ratio: 1.37 : 1

Capturas:
ImagenImagenImagenImagenImagen

ImagenImagenImagenImagenImagen

Datos:

Código: Seleccionar todo

General
Unique ID                   : 185072646694980112959835251733410477807 (0x8B3BB1F9A7BBB8FF969BE7DEED91F6EF)
Complete name               : Crossfire (1947) DVDRip.Dual.mkv
Format                      : Matroska
Format version              : Version 4 / Version 2
File size                   : 1.83 GiB
Duration                    : 1 h 25 min
Overall bit rate            : 3 062 kb/s
Encoded date                : UTC 2016-10-31 03:46:46
Writing application         : mkvmerge v7.9.0 ('Birds') 32bit
Writing library             : libebml v1.3.1 + libmatroska v1.4.2

Video
ID                          : 1
Format                      : AVC
Format/Info                 : Advanced Video Codec
Format profile              : High@L4.1
Format settings, CABAC      : Yes
Format settings, ReFrames   : 4 frames
Codec ID                    : V_MPEG4/ISO/AVC
Duration                    : 1 h 25 min
Bit rate                    : 2 479 kb/s
Width                       : 656 pixels
Height                      : 480 pixels
Display aspect ratio        : 4:3
Frame rate mode             : Constant
Frame rate                  : 23.976 (24000/1001) FPS
Color space                 : YUV
Chroma subsampling          : 4:2:0
Bit depth                   : 8 bits
Scan type                   : Progressive
Bits/(Pixel*Frame)          : 0.328
Stream size                 : 1.48 GiB (81%)
Writing library             : x264 core 148 r2721 72d53ab
Encoding settings           : cabac=1 / ref=4 / deblock=1:-1:-1 / analyse=0x3:0x133 / me=umh / subme=7 / psy=1 / psy_rd=1.00:0.15 / mixed_ref=1 / me_range=16 / chroma_me=1 / trellis=1 / 8x8dct=1 / cqm=0 / deadzone=21,11 / fast_pskip=1 / chroma_qp_offset=-3 / threads=3 / lookahead_threads=1 / sliced_threads=0 / nr=0 / decimate=1 / interlaced=0 / bluray_compat=0 / constrained_intra=0 / bframes=3 / b_pyramid=2 / b_adapt=2 / b_bias=0 / direct=3 / weightb=1 / open_gop=0 / weightp=2 / keyint=240 / keyint_min=23 / scenecut=40 / intra_refresh=0 / rc_lookahead=60 / rc=2pass / mbtree=1 / bitrate=2479 / ratetol=1.0 / qcomp=0.60 / qpmin=0 / qpmax=69 / qpstep=4 / cplxblur=20.0 / qblur=0.5 / vbv_maxrate=50000 / vbv_bufsize=62500 / nal_hrd=none / filler=0 / ip_ratio=1.40 / aq=1:1.00
Language                    : English
Default                     : Yes
Forced                      : No

Audio #1
ID                          : 2
Format                      : AC-3
Format/Info                 : Audio Coding 3
Mode extension              : CM (complete main)
Format settings, Endianness : Big
Codec ID                    : A_AC3
Duration                    : 1 h 25 min
Bit rate mode               : Constant
Bit rate                    : 192 kb/s
Channel(s)                  : 1 channel
Channel positions           : Front: C
Sampling rate               : 48.0 kHz
Frame rate                  : 31.250 FPS (1536 spf)
Bit depth                   : 16 bits
Compression mode            : Lossy
Delay relative to video     : 4 ms
Stream size                 : 118 MiB (6%)
Language                    : English
Default                     : Yes
Forced                      : No

Audio #2
ID                          : 3
Format                      : AC-3
Format/Info                 : Audio Coding 3
Mode extension              : CM (complete main)
Format settings, Endianness : Big
Codec ID                    : A_AC3
Duration                    : 1 h 25 min
Bit rate mode               : Constant
Bit rate                    : 192 kb/s
Channel(s)                  : 2 channels
Channel positions           : Front: L R
Sampling rate               : 48.0 kHz
Frame rate                  : 31.250 FPS (1536 spf)
Bit depth                   : 16 bits
Compression mode            : Lossy
Stream size                 : 118 MiB (6%)
Language                    : Spanish
Default                     : No
Forced                      : No

Audio #3
ID                          : 4
Format                      : AC-3
Format/Info                 : Audio Coding 3
Mode extension              : CM (complete main)
Format settings, Endianness : Big
Codec ID                    : A_AC3
Duration                    : 1 h 25 min
Bit rate mode               : Constant
Bit rate                    : 192 kb/s
Channel(s)                  : 2 channels
Channel positions           : Front: L R
Sampling rate               : 48.0 kHz
Frame rate                  : 31.250 FPS (1536 spf)
Bit depth                   : 16 bits
Compression mode            : Lossy
Stream size                 : 118 MiB (6%)
Title                       : 1992
Language                    : Spanish
Default                     : No
Forced                      : No

Text #1
ID                          : 5
Format                      : VobSub
Muxing mode                 : zlib
Codec ID                    : S_VOBSUB
Codec ID/Info               : Picture based subtitle format used on DVDs
Duration                    : 1 h 23 min
Bit rate                    : 2 552 b/s
Count of elements           : 1157
Stream size                 : 1.52 MiB (0%)
Language                    : English
Default                     : No
Forced                      : No

Text #2
ID                          : 6
Format                      : VobSub
Muxing mode                 : zlib
Codec ID                    : S_VOBSUB
Codec ID/Info               : Picture based subtitle format used on DVDs
Duration                    : 1 h 25 min
Bit rate                    : 2 394 b/s
Count of elements           : 1162
Stream size                 : 1.46 MiB (0%)
Language                    : Spanish
Default                     : No
Forced                      : No
Subtítulos en inglés y español incluídos en el contenedor MKV, ambos proceden del DVD.
Se incluye tanto el doblaje clásico como el re-doblaje de 1992.

Elink:
eD2K link Crossfire (1947) DVDRip.Dual.mkv [1.83 Gb] 
“Si no lees los periódicos estás desinformado”.
Y si los lees estás mal informado”.
Denzel Washington.

Avatar de Usuario
Arthur James Hamp
 
Mensajes: 2768
Registrado: 06 May 2016 11:47
Ubicación: Canet de Berenguer (Valencia)
Agradecido : 4065 veces
Agradecimiento recibido: 4383 veces

Re: Crossfire (Edward Dmytryk, 1947) DVDRip Dual SE

Mensaje por Arthur James Hamp » 02 Nov 2016 17:15

Gran película, gran reparto, gran director... muchas gracias locotus :aplauso: :aplauso:
Para llevarse bien ...
no necesitamos las mismas ideas ...
necesitamos el mismo respeto.

felipemarlou
 
Mensajes: 1799
Registrado: 10 Ago 2013 00:02
Agradecido : 939 veces
Agradecimiento recibido: 2947 veces

Re: Crossfire (Edward Dmytryk, 1947) DVDRip Dual SE

Mensaje por felipemarlou » 02 Nov 2016 17:34

Merci Locutus.

Tengo en mi incoming esto:

http://noirestyle.com/forum/viewtopic.p ... 568#p73568

Excelente trabajo de Caruso & Loga con un mkv que contiene los 2 doblajes spanish. :hi:

Responder

Volver a “Largos Clásicos”