Tempo massimo (Mario Mattoli, 1934) WEB-DL 1080p VOSE

Puntuación
Sin
puntuar

Moderador: mifune

Responder
Avatar de Usuario
jotarapidup
 
Mensajes: 1147
Registrado: 02 Oct 2012 21:05
Ubicación: Valdivia, Chile.
Agradecido : 396 veces
Agradecimiento recibido: 987 veces

Italia Tempo massimo (Mario Mattoli, 1934) WEB-DL 1080p VOSE

Mensaje por jotarapidup » 04 May 2021 03:33

Imagen

TEMPO MASSIMO

IMDB

El profesor Giacomo Banti vive dedicado a sus plantas, sus libros y su piano en una villa con la única compañía de su mayordomo y su autoritaria tía, que le tratan como a un niño. Sin embargo, él sueña con el amor. Un día, mientras Giacomo pesca en barca, una paracaidista le cae encima: se trata de la bella e intrépida Dora Sandri. Ella y sus amigos serán invitados a pasar la noche en la villa. Su modo de ser y su estilo de vida alegre y alocado choca totalmente con el de Giacomo, pero éste se replanteará su vida para poder conquistar a Dora. (FILMAFFINITY)

Título original
Tempo massimo

Año
1934

Duración
78 min.

País
Italia

Dirección
Mario Mattoli

Guion
Mario Mattoli

Música
Vittorio Mascheroni, Virgilio Ripa

Fotografía
Carlo Montuori (B&W)

Reparto
Vittorio De Sica, Milly, Camillo Pilotto, Enrico Viarisio, Amelia Chellini, Anna Magnani, Ermanno Roveri, Nerio Bernardi, Giulio Donadio

Productora
Za-Bum

Género
Comedia

Imagen

Imagen

Imagen

Imagen

Imagen

Imagen

Código: Seleccionar todo

General
Unique ID                                : 287175900213218859841113035344801833744 (0xD80C1109990587003C220F86225E2310)
Complete name                            : C:\Users\Downloads\eMule\Incoming\Tempo massimo. (1934).WEB-DL.1080p.x264.(English.French.and.Spanish.Subtitles).mkv
Format                                   : Matroska
Format version                           : Version 4
File size                                : 5.29 GiB
Duration                                 : 1 h 15 min
Overall bit rate                         : 10.0 Mb/s
Movie name                               : Tempo massimo / Full Speed (1934)
Encoded date                             : UTC 2021-01-27 20:02:12
Writing application                      : mkvmerge v51.0.0 ('I Wish') 64-bit
Writing library                          : libebml v1.4.0 + libmatroska v1.6.2
Cover                                    : Yes
Attachments                              : cover.jpg

Video
ID                                       : 1
Format                                   : AVC
Format/Info                              : Advanced Video Codec
Format profile                           : High@L4
Format settings                          : CABAC / 4 Ref Frames
Format settings, CABAC                   : Yes
Format settings, Reference frames        : 4 frames
Codec ID                                 : V_MPEG4/ISO/AVC
Duration                                 : 1 h 15 min
Bit rate mode                            : Constant
Bit rate                                 : 10 000 kb/s
Width                                    : 1 440 pixels
Height                                   : 1 080 pixels
Display aspect ratio                     : 4:3
Frame rate mode                          : Constant
Frame rate                               : 25.000 FPS
Color space                              : YUV
Chroma subsampling                       : 4:2:0
Bit depth                                : 8 bits
Scan type                                : Progressive
Bits/(Pixel*Frame)                       : 0.257
Stream size                              : 5.17 GiB (98%)
Language                                 : Italian
Default                                  : Yes
Forced                                   : No
Color range                              : Limited
Color primaries                          : BT.709
Transfer characteristics                 : BT.709
Matrix coefficients                      : BT.709

Audio
ID                                       : 2
Format                                   : E-AC-3
Format/Info                              : Enhanced AC-3
Commercial name                          : Dolby Digital Plus
Codec ID                                 : A_EAC3
Duration                                 : 1 h 15 min
Bit rate mode                            : Constant
Bit rate                                 : 224 kb/s
Channel(s)                               : 2 channels
Channel layout                           : L R
Sampling rate                            : 48.0 kHz
Frame rate                               : 31.250 FPS (1536 SPF)
Compression mode                         : Lossy
Stream size                              : 121 MiB (2%)
Language                                 : Italian
Service kind                             : Complete Main
Default                                  : Yes
Forced                                   : No

Text #1
ID                                       : 3
Format                                   : UTF-8
Codec ID                                 : S_TEXT/UTF8
Codec ID/Info                            : UTF-8 Plain Text
Duration                                 : 1 h 14 min
Bit rate                                 : 57 b/s
Count of elements                        : 863
Stream size                              : 31.5 KiB (0%)
Language                                 : English
Default                                  : Yes
Forced                                   : No

Text #2
ID                                       : 4
Format                                   : UTF-8
Codec ID                                 : S_TEXT/UTF8
Codec ID/Info                            : UTF-8 Plain Text
Duration                                 : 1 h 14 min
Bit rate                                 : 64 b/s
Count of elements                        : 859
Stream size                              : 35.5 KiB (0%)
Language                                 : French
Default                                  : No
Forced                                   : No

Text #3
ID                                       : 5
Format                                   : UTF-8
Codec ID                                 : S_TEXT/UTF8
Codec ID/Info                            : UTF-8 Plain Text
Duration                                 : 1 h 14 min
Bit rate                                 : 60 b/s
Count of elements                        : 860
Stream size                              : 33.1 KiB (0%)
Language                                 : Spanish
Default                                  : No
Forced                                   : No

Menu
00:00:00.000                             : it:01. Il professore
00:04:32.000                             : it:02. La paracadutista
00:10:54.000                             : it:03. Gli amici di Dora
00:20:00.000                             : it:04. Il primo bicchiere
00:26:08.000                             : it:05. L'invito
00:31:26.000                             : it:06. Capodanno
00:36:52.000                             : it:07. La caduta
00:40:56.000                             : it:08. La fotografia
00:46:16.000                             : it:09. La corsa ciclistica
00:56:32.000                             : it:10. Il malinteso
01:04:58.000                             : it:11. Le cambiali
01:09:46.000                             : it:12. Il matrimonio

Compartida por karleg en KG. La copia lleva subtítulos en español, inglés y francés.
Desconfiad de las personas que nunca ríen, no son personas serias. (Julio César)

Responder

Volver a “Largos Clásicos”