A Woman's Face (George Cukor, 1941) WEBRip Dual SE

Puntuación
Sin
puntuar

Un Rostro De Mujer.

Moderador: mifune

Responder
Avatar de Usuario
locotus
 
Mensajes: 1059
Registrado: 16 Oct 2012 18:18
Agradecido : 62 veces
Agradecimiento recibido: 6417 veces

Estados Unidos A Woman's Face (George Cukor, 1941) WEBRip Dual SE

Mensaje por locotus » 07 Jun 2021 16:23

- A Woman's Face - Un Rostro De Mujer -
Imagen

Directed by George Cukor

Writing Credits:
Francis de Croisset ... (play) (as Francis De Croisset)
Donald Ogden Stewart ... (screen play) and
Elliot Paul ... (screen play)

Cast:
Joan Crawford ... Anna Holm
Melvyn Douglas ... Dr. Gustaf Segert
Conrad Veidt ... Torsten Barring
Osa Massen ... Vera Segert
Reginald Owen ... Bernard Dalvik
Albert Bassermann ... Consul Magnus Barring
Marjorie Main ... Emma Kristiansdotter
Donald Meek ... Herman Rundvik
Connie Gilchrist ... Christina Dalvik
Richard Nichols ... Lars-Erik
Charles Quigley ... Eric
Gwili Andre ... Gusta
Clifford Brooke ... Wickman
George Zucco ... Defense Attorney
Henry Kolker ... Judge
Robert Warwick ... Associate Judge
Gilbert Emery ... Associate Judge
Henry Daniell ... Public Prosecutor
Sarah Padden ... Police Matron
William Farnum ... Court Attendant

Runtime: 106 min
Sound Mix: Mono (Western Electric Sound System)
Color: Black and White
Aspect Ratio: 1.37 : 1

https://www.imdb.com/title/tt0034399/

Sinopsis:
Memorable interpretación de Joan Craword en el papel de una mujer acusada de asesinato que se somete
a una operación de cirugía estética para cambiar de vida. Remake de un drama sueco de 1938 protagonizado
por Ingrid Bergman. (FILMAFFINITY)

Capturas:
ImagenImagenImagenImagenImagen
ImagenImagenImagenImagenImagen

Datos:

Código: Seleccionar todo

General
Unique ID                   : 109309289343459498666406482024792376419 (0x523C340F0C7AF7EB214EE98AC7BCC463)
Complete name               : A Woman's Face (1941) WEBRip 1080 Dual SE.mkv
Format                      : Matroska
Format version              : Version 4
File size                   : 1.73 GiB
Duration                    : 1 h 46 min
Overall bit rate            : 2 323 kb/s
Encoded date                : UTC 2021-06-07 13:58:18
Writing application         : mkvmerge v57.0.0 ('Till The End') 64-bit
Writing library             : libebml v1.4.2 + libmatroska v1.6.4

Video
ID                          : 1
Format                      : HEVC
Format/Info                 : High Efficiency Video Coding
Format profile              : Main 10@L4@Main
Codec ID                    : V_MPEGH/ISO/HEVC
Duration                    : 1 h 46 min
Bit rate                    : 2 001 kb/s
Width                       : 1 440 pixels
Height                      : 1 080 pixels
Display aspect ratio        : 4:3
Frame rate mode             : Constant
Frame rate                  : 23.976 (24000/1001) FPS
Color space                 : YUV
Chroma subsampling          : 4:2:0
Bit depth                   : 10 bits
Bits/(Pixel*Frame)          : 0.054
Stream size                 : 1.49 GiB (86%)
Writing library             : x265 3.3+4-rarbg-30eb4de83092:[Linux][GCC 8.3.1][64 bit] 10bit
Encoding settings           : cpuid=1111039 / frame-threads=4 / wpp / no-pmode / no-pme / no-psnr / no-ssim / log-level=2 / input-csp=1 / input-res=1440x1080 / interlace=0 / total-frames=0 / level-idc=0 / high-tier=1 / uhd-bd=0 / ref=4 / no-allow-non-conformance / no-repeat-headers / annexb / no-aud / no-hrd / info / hash=0 / no-temporal-layers / open-gop / min-keyint=23 / keyint=250 / gop-lookahead=0 / bframes=4 / b-adapt=2 / b-pyramid / bframe-bias=0 / rc-lookahead=25 / lookahead-slices=4 / scenecut=40 / hist-scenecut=0 / radl=0 / no-splice / no-intra-refresh / ctu=64 / min-cu-size=8 / rect / no-amp / max-tu-size=32 / tu-inter-depth=1 / tu-intra-depth=1 / limit-tu=0 / rdoq-level=2 / dynamic-rd=0.00 / no-ssim-rd / signhide / no-tskip / nr-intra=0 / nr-inter=0 / no-constrained-intra / strong-intra-smoothing / max-merge=3 / limit-refs=3 / limit-modes / me=3 / subme=3 / merange=57 / temporal-mvp / no-frame-dup / no-hme / weightp / no-weightb / no-analyze-src-pics / deblock=0:0 / no-sao / no-sao-non-deblock / rd=4 / selective-sao=0 / no-early-skip / rskip / no-fast-intra / no-tskip-fast / no-cu-lossless / no-b-intra / no-splitrd-skip / rdpenalty=0 / psy-rd=2.00 / psy-rdoq=1.00 / no-rd-refine / no-lossless / cbqpoffs=0 / crqpoffs=0 / rc=abr / bitrate=2000 / qcomp=0.60 / qpstep=4 / stats-write=0 / stats-read=2 / cplxblur=20.0 / qblur=0.5 / ipratio=1.40 / pbratio=1.30 / aq-mode=3 / aq-strength=1.00 / cutree / zone-count=0 / no-strict-cbr / qg-size=32 / no-rc-grain / qpmax=69 / qpmin=0 / no-const-vbv / sar=1 / overscan=0 / videoformat=5 / range=0 / colorprim=2 / transfer=2 / colormatrix=2 / chromaloc=0 / display-window=0 / cll=0,0 / min-luma=0 / max-luma=1023 / log2-max-poc-lsb=8 / vui-timing-info / vui-hrd-info / slices=1 / no-opt-qp-pps / no-opt-ref-list-length-pps / no-multi-pass-opt-rps / scenecut-bias=0.05 / hist-threshold=0.01 / no-opt-cu-delta-qp / no-aq-motion / no-hdr10 / no-hdr10-opt / no-dhdr10-opt / no-idr-recovery-sei / analysis-reuse-level=0 / analysis-save-reuse-level=0 / analysis-load-reuse-level=0 / scale-factor=0 / refine-intra=0 / refine-inter=0 / refine-mv=1 / refine-ctu-distortion=0 / no-limit-sao / ctu-info=0 / no-lowpass-dct / refine-analysis-type=0 / copy-pic=1 / max-ausize-factor=1.0 / no-dynamic-refine / no-single-sei / no-hevc-aq / no-svt / no-field / qp-adaptation-range=1.00 / no-scenecut-aware-qpconformance-window-offsets / right=0 / bottom=0
Default                     : Yes
Forced                      : No

Audio #1
ID                          : 2
Format                      : AAC LC
Format/Info                 : Advanced Audio Codec Low Complexity
Codec ID                    : A_AAC-2
Duration                    : 1 h 46 min
Bit rate                    : 224 kb/s
Channel(s)                  : 1 channel
Channel layout              : C
Sampling rate               : 48.0 kHz
Frame rate                  : 46.875 FPS (1024 SPF)
Compression mode            : Lossy
Delay relative to video     : -43 ms
Stream size                 : 170 MiB (10%)
Language                    : English
Default                     : Yes
Forced                      : No

Audio #2
ID                          : 3
Format                      : AAC LC
Format/Info                 : Advanced Audio Codec Low Complexity
Codec ID                    : A_AAC-2
Duration                    : 1 h 46 min
Bit rate                    : 96.0 kb/s
Channel(s)                  : 2 channels
Channel layout              : L R
Sampling rate               : 48.0 kHz
Frame rate                  : 46.875 FPS (1024 SPF)
Compression mode            : Lossy
Delay relative to video     : -27 ms
Stream size                 : 73.1 MiB (4%)
Language                    : Spanish
Default                     : No
Forced                      : No

Text #1
ID                          : 4
Format                      : UTF-8
Codec ID                    : S_TEXT/UTF8
Codec ID/Info               : UTF-8 Plain Text
Duration                    : 1 h 43 min
Bit rate                    : 69 b/s
Count of elements           : 1450
Stream size                 : 52.5 KiB (0%)
Language                    : English
Default                     : Yes
Forced                      : No

Text #2
ID                          : 5
Format                      : UTF-8
Codec ID                    : S_TEXT/UTF8
Codec ID/Info               : UTF-8 Plain Text
Duration                    : 1 h 43 min
Bit rate                    : 56 b/s
Count of elements           : 1335
Stream size                 : 42.8 KiB (0%)
Language                    : Spanish
Default                     : No
Forced                      : No
Archivo descargado via Torrent, video, audio y sub inglés untouched.
Doblaje del 83 by Scaramouche and Theycame2001.
Subtitulos españoles de Alex6500, pasados a español neutro y retocados para este archivo.

Película:
eD2K link A Woman's Face (1941) WEBRip 1080 Dual SE.mkv [1.73 Gb] 
“Si no lees los periódicos estás desinformado”.
Y si los lees estás mal informado”.
Denzel Washington.

Avatar de Usuario
boettcher
 
Mensajes: 1664
Registrado: 17 Oct 2012 12:01
Agradecido : 996 veces
Agradecimiento recibido: 301 veces

Re: A Woman's Face (George Cukor, 1941) WEBRip Dual SE

Mensaje por boettcher » 08 Jun 2021 00:19

Un Cukor inédito para mí. Muchas gracias, locotus :)

Avatar de Usuario
gatatitania
 
Mensajes: 5523
Registrado: 16 Oct 2012 18:27
Ubicación: Gatatitania es un gato hambriento, superviviente del planeta gatatitania...
Agradecido : 2912 veces
Agradecimiento recibido: 1720 veces

Re: A Woman's Face (George Cukor, 1941) WEBRip Dual SE

Mensaje por gatatitania » 08 Jun 2021 12:56

¡Gracias, Locotus! :hi: :hi: :hi:

Avatar de Usuario
juannavarrete
 
Mensajes: 2823
Registrado: 16 Oct 2012 15:21
Ubicación: En la frontera de la webtern
Agradecido : 11 veces
Agradecimiento recibido: 2833 veces

Re: A Woman's Face (George Cukor, 1941) WEBRip Dual SE

Mensaje por juannavarrete » 08 Jun 2021 14:07

Gracias Locotus...
Un abrazo.
Es necesario para su distribución, dejar las descargas obtenidas en el incoming.
(Lo que es bueno para uno, es bueno para todos)

brenda21
 
Mensajes: 99
Registrado: 01 Dic 2012 00:00
Agradecido : 1 vez
Agradecimiento recibido: 69 veces

Re: A Woman's Face (George Cukor, 1941) WEBRip Dual SE

Mensaje por brenda21 » 08 Jun 2021 15:48

Muchas gracias locotus :up: :up:

Avatar de Usuario
tonapar1
 
Mensajes: 5750
Registrado: 16 Oct 2012 20:19
Agradecido : 1138 veces
Agradecimiento recibido: 1991 veces

Re: A Woman's Face (George Cukor, 1941) WEBRip Dual SE

Mensaje por tonapar1 » 08 Jun 2021 21:31

Muchas gracias por el ripeo a locotus. Un saludol.

Responder

Volver a “Largos Clásicos”