Behind The Mask (Brian Desmond Hurst, 1958) BRRip VOSI

Puntuación
Sin
puntuar

Moderador: mifune

Responder
Avatar de Usuario
locotus
 
Mensajes: 1059
Registrado: 16 Oct 2012 18:18
Agradecido : 62 veces
Agradecimiento recibido: 6417 veces

Reino Unido Behind The Mask (Brian Desmond Hurst, 1958) BRRip VOSI

Mensaje por locotus » 08 Jun 2021 20:13

- Behind The Mask -
Imagen

Directed by Brian Desmond Hurst
Writing Credits
John Rowan Wilson ... (novel)
John Hunter ... (screenplay)

Cast:
Michael Redgrave ... Sir Arthur Benson Gray
Tony Britton ... Philip Selwood
Carl Möhner ... Dr. Carl Romek
Niall MacGinnis ... Neil Isherwood
Vanessa Redgrave ... Pamela Benson Gray
Ian Bannen ... Alan Crabtree
Brenda Bruce ... Elizabeth Fallon
Lionel Jeffries ... Walter Froy
Miles Malleson ... Sir Oswald Pettiford
John Welsh ... Colonel Langley
Ann Firbank ... Mrs. Judson
John Gale ... Mr. John Greenwood
Jack Hedley ... Dr. Galbraith
Hugh Miller ... Examiner
Mary Skinner ... Theatre Sister
Margaret Tyzack ... Night Sister

Sound Mix: Mono (Westrex Recording System)
Color: Black and White (opening credits)| Color (Colour by) (Eastmancolour)
Aspect Ratio: 1.66 : 1

https://www.imdb.com/title/tt0051405/

Sinopsis
Tras la muerte de un paciente por negligencia, un cirujano asume la culpa para cubrir a un
colega drogadicto. (FILMAFFINITY)

Capturas:
ImagenImagenImagenImagenImagen
ImagenImagenImagenImagenImagen

Datos:

Código: Seleccionar todo

General
Complete name               : Behind.the.Mask.1958.1080p.BluRay.x265-RARBG.mp4
Format                      : MPEG-4
Format profile              : Base Media
Codec ID                    : isom (isom/iso2/mp41)
File size                   : 1.55 GiB
Duration                    : 1 h 39 min
Overall bit rate            : 2 231 kb/s
Movie name                  : Behind.the.Mask.1958.1080p.BluRay.x265-RARBG
Encoded date                : UTC 2021-05-23 02:30:26
Tagged date                 : UTC 2021-05-23 02:30:26
Writing application         : Lavf58.20.100
Comment                     : Behind.the.Mask.1958.1080p.BluRay.x265-RARBG

Video
ID                          : 1
Format                      : HEVC
Format/Info                 : High Efficiency Video Coding
Format profile              : Main 10@L4@Main
Codec ID                    : hev1
Codec ID/Info               : High Efficiency Video Coding
Duration                    : 1 h 39 min
Bit rate                    : 2 001 kb/s
Width                       : 1 800 pixels
Height                      : 1 080 pixels
Display aspect ratio        : 5:3
Frame rate mode             : Constant
Frame rate                  : 24.000 FPS
Color space                 : YUV
Chroma subsampling          : 4:2:0
Bit depth                   : 10 bits
Bits/(Pixel*Frame)          : 0.043
Stream size                 : 1.39 GiB (90%)
Writing library             : x265 3.3+4-rarbg-30eb4de83092:[Linux][GCC 8.3.1][64 bit] 10bit
Encoding settings           : cpuid=1111039 / frame-threads=4 / wpp / no-pmode / no-pme / no-psnr / no-ssim / log-level=2 / input-csp=1 / input-res=1800x1080 / interlace=0 / total-frames=0 / level-idc=0 / high-tier=1 / uhd-bd=0 / ref=4 / no-allow-non-conformance / no-repeat-headers / annexb / no-aud / no-hrd / info / hash=0 / no-temporal-layers / open-gop / min-keyint=24 / keyint=250 / gop-lookahead=0 / bframes=4 / b-adapt=2 / b-pyramid / bframe-bias=0 / rc-lookahead=25 / lookahead-slices=4 / scenecut=40 / hist-scenecut=0 / radl=0 / no-splice / no-intra-refresh / ctu=64 / min-cu-size=8 / rect / no-amp / max-tu-size=32 / tu-inter-depth=1 / tu-intra-depth=1 / limit-tu=0 / rdoq-level=2 / dynamic-rd=0.00 / no-ssim-rd / signhide / no-tskip / nr-intra=0 / nr-inter=0 / no-constrained-intra / strong-intra-smoothing / max-merge=3 / limit-refs=3 / limit-modes / me=3 / subme=3 / merange=57 / temporal-mvp / no-frame-dup / no-hme / weightp / no-weightb / no-analyze-src-pics / deblock=0:0 / no-sao / no-sao-non-deblock / rd=4 / selective-sao=0 / no-early-skip / rskip / no-fast-intra / no-tskip-fast / no-cu-lossless / no-b-intra / no-splitrd-skip / rdpenalty=0 / psy-rd=2.00 / psy-rdoq=1.00 / no-rd-refine / no-lossless / cbqpoffs=0 / crqpoffs=0 / rc=abr / bitrate=2000 / qcomp=0.60 / qpstep=4 / stats-write=0 / stats-read=2 / cplxblur=20.0 / qblur=0.5 / ipratio=1.40 / pbratio=1.30 / aq-mode=3 / aq-strength=1.00 / cutree / zone-count=0 / no-strict-cbr / qg-size=32 / no-rc-grain / qpmax=69 / qpmin=0 / no-const-vbv / sar=1 / overscan=0 / videoformat=5 / range=0 / colorprim=2 / transfer=2 / colormatrix=2 / chromaloc=0 / display-window=0 / cll=0,0 / min-luma=0 / max-luma=1023 / log2-max-poc-lsb=8 / vui-timing-info / vui-hrd-info / slices=1 / no-opt-qp-pps / no-opt-ref-list-length-pps / no-multi-pass-opt-rps / scenecut-bias=0.05 / hist-threshold=0.01 / no-opt-cu-delta-qp / no-aq-motion / no-hdr10 / no-hdr10-opt / no-dhdr10-opt / no-idr-recovery-sei / analysis-reuse-level=0 / analysis-save-reuse-level=0 / analysis-load-reuse-level=0 / scale-factor=0 / refine-intra=0 / refine-inter=0 / refine-mv=1 / refine-ctu-distortion=0 / no-limit-sao / ctu-info=0 / no-lowpass-dct / refine-analysis-type=0 / copy-pic=1 / max-ausize-factor=1.0 / no-dynamic-refine / no-single-sei / no-hevc-aq / no-svt / no-field / qp-adaptation-range=1.00 / no-scenecut-aware-qpconformance-window-offsets / right=0 / bottom=0
Encoded date                : UTC 2021-05-23 02:30:26
Tagged date                 : UTC 2021-05-23 02:30:26
Codec configuration box     : hvcC

Audio
ID                          : 2
Format                      : AAC LC
Format/Info                 : Advanced Audio Codec Low Complexity
Codec ID                    : mp4a-40-2
Duration                    : 1 h 39 min
Bit rate mode               : Constant
Bit rate                    : 224 kb/s
Channel(s)                  : 2 channels
Channel layout              : L R
Sampling rate               : 48.0 kHz
Frame rate                  : 46.875 FPS (1024 SPF)
Compression mode            : Lossy
Stream size                 : 159 MiB (10%)
Language                    : English
Default                     : Yes
Alternate group             : 1
Encoded date                : UTC 2021-05-23 02:30:26
Tagged date                 : UTC 2021-05-23 02:30:26
Archivo descargado por torrent, untouched.
Subs ingleses bajaron con el archivo.


Subtitulos en Inglés:
eD2K link Behind The Mask - English.srt [116.5 Kb] 

Película:
eD2K link Behind.the.Mask.1958.1080p.BluRay.x265-RARBG.mp4 [1.55 Gb] 
“Si no lees los periódicos estás desinformado”.
Y si los lees estás mal informado”.
Denzel Washington.

Avatar de Usuario
boettcher
 
Mensajes: 1664
Registrado: 17 Oct 2012 12:01
Agradecido : 996 veces
Agradecimiento recibido: 301 veces

Re: Behind The Mask (Brian Desmond Hurst, 1958) BRRip VOSI

Mensaje por boettcher » 09 Jun 2021 16:58

Muchas gracias, locotus :)

Avatar de Usuario
tonapar1
 
Mensajes: 5750
Registrado: 16 Oct 2012 20:19
Agradecido : 1138 veces
Agradecimiento recibido: 1991 veces

Re: Behind The Mask (Brian Desmond Hurst, 1958) BRRip VOSI

Mensaje por tonapar1 » 10 Jun 2021 10:28

Muchas gracias por el ripeo y los subs a locotus. Un saludo

Responder

Volver a “Largos Clásicos”