Shadow Of Doubt (George B. Seitz, 1935) DVDRip VO

Puntuación
Sin
puntuar

Moderador: mifune

Responder
Avatar de Usuario
locotus
 
Mensajes: 1059
Registrado: 16 Oct 2012 18:18
Agradecido : 62 veces
Agradecimiento recibido: 6417 veces

Estados Unidos Shadow Of Doubt (George B. Seitz, 1935) DVDRip VO

Mensaje por locotus » 09 Jun 2021 16:14

- Shadow Of Doubt (1935) -
Imagen

Directed by George B. Seitz

Writing Credits:
Wells Root ... (screenplay)
Arthur Somers Roche ... (from the story by)

Cast:
Ricardo Cortez ... Sim Sturdevant
Virginia Bruce ... Trenna Plaice
Constance Collier ... Aunt Melissa Pilson
Isabel Jewell ... Inez Johnson
Arthur Byron ... Morgan Bellwood
Betty Furness ... Lisa Bellwood
Regis Toomey ... Reed Ryan
Ivan F. Simpson ... Morse (as Ivan Simpson)
Bradley Page ... Len Haworth
Edward Brophy ... Fred Wilcox
Samuel S. Hinds ... Thomas Granby
Richard Tucker ... Mark Torrey
Bernard Siegel ... Ehrhardt
Paul Hurst ... Police Lt. Jack Sackville
Russell Hicks ... Chief of Detectives (scenes deleted)

Runtime: 74 min
Sound Mix: Mono (Western Electric Sound System)
Color: Black and White
Aspect Ratio: 1.37 : 1

https://www.imdb.com/title/tt0026980/

Sinopsis:
Haworth es un productor de espectáculos conocido por abusar de sus chicas durante años.
Ahora está comprometido con dos chicas, Lisa y Trenna. Después de beber y pelear con Sim,
Haworth es encontrado muerto en su apartmento. Pero todo el mundo parece tener motivos para
asesinar a Haworth.
Capturas:
ImagenImagenImagenImagenImagen
ImagenImagenImagenImagenImagen
Datos:

Código: Seleccionar todo

General
Unique ID                   : 253393652060377748501255639848871807080 (0xBEA1D79BDDA00778826240D119A44868)
Complete name               : Shadow of Doubt 1935 DVDRip x264.mkv
Format                      : Matroska
Format version              : Version 2
File size                   : 1.09 GiB
Duration                    : 1 h 14 min
Overall bit rate            : 2 102 kb/s
Encoded date                : UTC 2013-12-05 16:05:16
Writing application         : mkvmerge v5.2.1 ('A Far Off Place') built on Jan  2 2012 23:21:10
Writing library             : libebml v1.2.3 + libmatroska v1.3.0

Video
ID                          : 1
Format                      : AVC
Format/Info                 : Advanced Video Codec
Format profile              : High@L3.1
Format settings             : CABAC / 9 Ref Frames
Format settings, CABAC      : Yes
Format settings, Reference  : 9 frames
Codec ID                    : V_MPEG4/ISO/AVC
Duration                    : 1 h 14 min
Bit rate                    : 1 844 kb/s
Width                       : 640 pixels
Height                      : 480 pixels
Display aspect ratio        : 4:3
Frame rate mode             : Constant
Frame rate                  : 23.976 (24000/1001) FPS
Color space                 : YUV
Chroma subsampling          : 4:2:0
Bit depth                   : 8 bits
Scan type                   : Progressive
Bits/(Pixel*Frame)          : 0.250
Stream size                 : 958 MiB (86%)
Title                       : Guild55
Writing library             : x264 core 120 r2164 da19765
Encoding settings           : cabac=1 / ref=9 / deblock=1:-1:-1 / analyse=0x3:0x113 / me=hex / subme=7 / psy=1 / psy_rd=1.00:0.15 / mixed_ref=1 / me_range=16 / chroma_me=1 / trellis=1 / 8x8dct=1 / cqm=0 / deadzone=21,11 / fast_pskip=1 / chroma_qp_offset=-3 / threads=3 / sliced_threads=0 / nr=0 / decimate=1 / interlaced=0 / bluray_compat=0 / constrained_intra=0 / bframes=6 / b_pyramid=2 / b_adapt=1 / b_bias=0 / direct=1 / weightb=1 / open_gop=0 / weightp=2 / keyint=240 / keyint_min=23 / scenecut=40 / intra_refresh=0 / rc_lookahead=40 / rc=2pass / mbtree=1 / bitrate=1844 / ratetol=1.0 / qcomp=0.60 / qpmin=0 / qpmax=69 / qpstep=4 / cplxblur=20.0 / qblur=0.5 / ip_ratio=1.40 / aq=1:1.00
Language                    : English
Default                     : Yes
Forced                      : No

Audio
ID                          : 2
Format                      : AC-3
Format/Info                 : Audio Coding 3
Commercial name             : Dolby Digital
Codec ID                    : A_AC3
Duration                    : 1 h 14 min
Bit rate mode               : Constant
Bit rate                    : 256 kb/s
Channel(s)                  : 2 channels
Channel layout              : L R
Sampling rate               : 48.0 kHz
Frame rate                  : 31.250 FPS (1536 SPF)
Compression mode            : Lossy
Stream size                 : 136 MiB (12%)
Title                       : English
Language                    : English
Service kind                : Complete Main
Default                     : Yes
Forced                      : No
Archivo descargado por torrent, untouched.

Película:
eD2K link Shadow of Doubt 1935 DVDRip x264.mkv [1.09 Gb] 
“Si no lees los periódicos estás desinformado”.
Y si los lees estás mal informado”.
Denzel Washington.

Responder

Volver a “Largos Clásicos”