Currito de la Cruz (Luis Lucia, 1949) SATRip VO

Puntuación
5/10
1 voto

Moderador: mifune

Responder
Avatar de Usuario
DCINE
 
Mensajes: 1762
Registrado: 30 Jul 2016 20:09
Agradecido : 794 veces
Agradecimiento recibido: 3705 veces

España Currito de la Cruz (Luis Lucia, 1949) SATRip VO

Mensaje por DCINE » 19 Jul 2021 06:13

Currito de la cruz
1949

Imagen



DIRECTOR: Luis Lucia
PRODUCTORA: CIFESA
GUIÓN: Alejandro Pérez Lugín, Antonio Abad Ojuel, Luis Lucia. Novela: Alejandro Pérez Lugín
MÚSICA: Juan Quintero
FOTOGRAFÍA: José Fernández Aguayo

ImagenImagenImagen
ImagenImagen


ARGUMENTO El sueño de Currito de la Cruz es convertirse en torero. Cuando consigue la oportunidad de torear por primera vez, conoce a Carmona, torero de renombre a quien consigue fascinar. Convertido en su protegido, Currito de la Cruz empieza a hacerse famoso. Al mismo tiempo, Currito se enamora de la hija de Carmona, pero su amor no es correspondido, ya que ella ama a "Romerita", otro torero. (FILMAFFINITY) IMDB: https://www.imdb.com/title/tt0040259/

ImagenImagenImagen
ImagenImagenImagen
ImagenImagenImagen
ImagenImagenImagen


Reparto: Pepín Martín Vázquez, Jorge Mistral, Nati Mistral, Manuel Luna, Tony Leblanc, Félix Fernández, Juan Espantaleón, Francisco Bernal, Arturo Marín, María Isbert

Imagen

Datos técnicos

Grabación original facilitada en su día por droid a petición mía. Hay un pequeño fragmento durante los créditos que procede de la copia que bajé en su día de RTVE.

Código: Seleccionar todo

General:
Complete name                    : 1949 Currito de la Cruz (Luis Lucia) SAT+WEBRip VO RTVE by droid-DCINE.mkv
Format                           : Matroska
Format version                   : Version 4 / Version 2
File size                        : 1.48 GiB
Duration                         : 1h 38mn
Overall bit rate                 : 2 164 Kbps
Movie name                       : 1949 Currito de la Cruz (Luis Lucia, 1949) SAT+WEBRip VO RTVE by droid-DCINE.mkv
Encoded date                     : UTC 2021-04-07 11:17:42
Writing application              : mkvmerge v7.1.0 ('Good Love') 32bit built on Jul 27 2014 12:59:18
Writing library                  : libebml v1.3.0 + libmatroska v1.4.1

Video
ID                               : 1
Format                           : AVC
Format/Info                      : Advanced Video Codec
Format profile                   : Main@L4.1
Format settings, CABAC           : Yes
Format settings, ReFrames        : 16 frames
Codec ID                         : V_MPEG4/ISO/AVC
Duration                         : 1h 38mn
Bit rate                         : 1 929 Kbps
Width                            : 716 pixels
Height                           : 566 pixels
Display aspect ratio             : 4:3
Frame rate mode                  : Variable
Frame rate                       : 25.000 fps
Color space                      : YUV
Chroma subsampling               : 4:2:0
Bit depth                        : 8 bits
Scan type                        : Progressive
Bits/(Pixel*Frame)               : 0.190
Stream size                      : 1.32 GiB (89%)
Writing library                  : x264 core 157 r2935 545de2f
Encoding settings                : cabac=1 / ref=16 / deblock=1:0:0 / analyse=0x1:0x131 / me=umh / subme=10 / psy=1 / psy_rd=1.00:0.00 / mixed_ref=1 / me_range=24 / chroma_me=1 / trellis=2 / 8x8dct=0 / cqm=0 / deadzone=21,11 / fast_pskip=1 / chroma_qp_offset=-2 / threads=12 / lookahead_threads=2 / sliced_threads=0 / nr=0 / decimate=1 / interlaced=0 / bluray_compat=0 / constrained_intra=0 / bframes=8 / b_pyramid=2 / b_adapt=2 / b_bias=0 / direct=3 / weightb=1 / open_gop=0 / weightp=2 / keyint=250 / keyint_min=25 / scenecut=40 / intra_refresh=0 / rc_lookahead=60 / rc=crf / mbtree=1 / crf=18.0 / qcomp=0.60 / qpmin=0 / qpmax=69 / qpstep=4 / vbv_maxrate=50000 / vbv_bufsize=62500 / crf_max=0.0 / nal_hrd=none / filler=0 / ip_ratio=1.40 / aq=1:1.00
Default                          : Yes
Forced                           : No
DURATION                         : 01:38:13.080000000
NUMBER_OF_FRAMES                 : 147327
NUMBER_OF_BYTES                  : 1451521176
_STATISTICS_WRITING_APP          : mkvmerge v7.1.0 ('Good Love') 32bit built on Jul 27 2014 12:59:18
_STATISTICS_WRITING_DATE_UTC     : 2021-04-07 11:17:42
_STATISTICS_TAGS                 : BPS DURATION NUMBER_OF_FRAMES NUMBER_OF_BYTES
Color primaries                  : BT.470-6 System B, BT.470-6 System G, BT.601-6 625, BT.1358 625, BT.1700 625 PAL, BT.1700 625 SECAM
Transfer characteristics         : BT.709-5, BT.1361
Matrix coefficients              : BT.601-6 525, BT.1358 525, BT.1700 NTSC, SMPTE 170M

Audio
ID                               : 2
Format                           : AC-3
Format/Info                      : Audio Coding 3
Mode extension                   : CM (complete main)
Codec ID                         : A_AC3
Duration                         : 1h 38mn
Bit rate mode                    : Constant
Bit rate                         : 192 Kbps
Channel(s)                       : 1 channel
Channel positions                : Front: C
Sampling rate                    : 48.0 KHz
Bit depth                        : 16 bits
Compression mode                 : Lossy
Delay relative to video          : -5ms
Stream size                      : 135 MiB (9%)
Language                         : Spanish
Default                          : Yes
Forced                           : No
DURATION                         : 01:38:13.120000000
NUMBER_OF_FRAMES                 : 184160
NUMBER_OF_BYTES                  : 141434880
_STATISTICS_WRITING_APP          : mkvmerge v7.1.0 ('Good Love') 32bit built on Jul 27 2014 12:59:18
_STATISTICS_WRITING_DATE_UTC     : 2021-04-07 11:17:42
_STATISTICS_TAGS                 : BPS DURATION NUMBER_OF_FRAMES NUMBER_OF_BYTES


Capturas:

Imagen Imagen
Imagen Imagen
Imagen Imagen
Imagen Imagen
Imagen Imagen




Enlace:
eD2K link 1949 Currito de la Cruz (Luis Lucia) SAT+WEBRip VO RTVE by droid-DCINE.mkv [1.48 Gb] 

Avatar de Usuario
tonapar1
 
Mensajes: 5846
Registrado: 16 Oct 2012 20:19
Agradecido : 1156 veces
Agradecimiento recibido: 2023 veces

Re: Currito de la Cruz (Luis Lucia, 1949) SATRip VO

Mensaje por tonapar1 » 19 Jul 2021 06:40

Muchas gracias por el ripeo a droid y a dcine. Un saludo a ambos.

Avatar de Usuario
Monsieur Lange
 
Mensajes: 5629
Registrado: 13 Sep 2012 19:39
Ubicación: Cruzando las dunas
Agradecido : 2295 veces
Agradecimiento recibido: 2356 veces

Re: Currito de la Cruz (Luis Lucia, 1949) SATRip VO

Mensaje por Monsieur Lange » 20 Jul 2021 09:40

Muchas gracias DCINE. Renuevo copia :aplauso: :aplauso:
"...Colmar la ignorancia es postergar la escritura hasta mañana, o más bien volverla imposible..."
Gilles Deleuze: Diferencia y repetición

Avatar de Usuario
gatatitania
 
Mensajes: 5598
Registrado: 16 Oct 2012 18:27
Ubicación: Gatatitania es un gato hambriento, superviviente del planeta gatatitania...
Agradecido : 2957 veces
Agradecimiento recibido: 1752 veces

Re: Currito de la Cruz (Luis Lucia, 1949) SATRip VO

Mensaje por gatatitania » 20 Jul 2021 16:26

¡Gracias a los dos! :drinks: :drinks: :drinks:

Avatar de Usuario
tuscarola
 
Mensajes: 2683
Registrado: 25 Dic 2012 20:38
Ubicación: En el Tarragonés
Agradecido : 911 veces
Agradecimiento recibido: 1169 veces

Re: Currito de la Cruz (Luis Lucia, 1949) SATRip VO

Mensaje por tuscarola » 20 Jul 2021 17:26

Otro clásico para la eternidad. Merci Droid y DCINE.
ImagenImagen
Imagen

Responder

Volver a “Largos Clásicos”