La revoltosa (José Díaz Morales, 1949) SATRip VO

Puntuación
Sin
puntuar

Moderador: mifune

Responder
Avatar de Usuario
DCINE
 
Mensajes: 1762
Registrado: 30 Jul 2016 20:09
Agradecido : 794 veces
Agradecimiento recibido: 3705 veces

España La revoltosa (José Díaz Morales, 1949) SATRip VO

Mensaje por DCINE » 20 Jul 2021 06:18

La revoltosa
1949

Imagen



DIRECTOR: José Díaz Morales
PRODUCTORA: Intercontinental Films
GUIÓN: José Díaz Morales, Fernando Merelo, Ricardo Toledo, Guillermo Fernández Shaw, Francisco Ramos de Castro. Obra: Carlos Fernández Shaw, José López Silva
MÚSICA: Manuel Parada
FOTOGRAFÍA: Emilio Foriscot, Alfredo Fraile

ImagenImagen


ARGUMENTO Mari Pepa vive con su padre, Don José, en uno de los barrios más populares del antiguo Madrid. El joven Felipe hace tiempo que está enamorado de ella, pero no se decide a declararle su amor. (FILMAFFINITY) IMDB: https://www.imdb.com/title/tt0041803/

ImagenImagenImagen
ImagenImagenImagen
ImagenImagenImagen
ImagenImagenImagen
ImagenImagenImagen
ImagenImagen

Reparto: Carmen Sevilla, Tony Leblanc, Tomás Blanco, Faustino Bretaño, Antonio Riquelme, Mario Berriatúa, Raúl Cancio, Francisco Cano, Manuel de Juan, Ramón Martori, Enrique Herreros, María Brú, Carmen de Lucio, Matilde Muñoz Sampedro, Julia Lajos, Marujita Díaz, Juana Mansó, Carmen Sánchez, Antonia Plana



Datos técnicos

Grabación original facilitada en su día por droid a petición mía. Hay un pequeño fragmento durante los créditos que procede de la copia que bajé en su día de RTVE.

Código: Seleccionar todo

General:
Complete name                    : 1949 La Revoltosa (José Díaz Morales) SAT+WEBRip VO RTVE by droid-DCINE.mkv
Format                           : Matroska
Format version                   : Version 4 / Version 2
File size                        : 1.06 GiB
Duration                         : 1h 30mn
Overall bit rate                 : 1 670 Kbps
Movie name                       : 1949 La Revoltosa (José Díaz Morales, 1949) SAT+WEBRip VO RTVE by droid-DCINE.mkv
Encoded date                     : UTC 2021-04-06 12:12:50
Writing application              : mkvmerge v7.1.0 ('Good Love') 32bit built on Jul 27 2014 12:59:18
Writing library                  : Lavf58.29.100

Video
ID                               : 1
Format                           : AVC
Format/Info                      : Advanced Video Codec
Format profile                   : Main@L4.1
Format settings, CABAC           : Yes
Format settings, ReFrames        : 16 frames
Codec ID                         : V_MPEG4/ISO/AVC
Duration                         : 1h 30mn
Bit rate                         : 1 445 Kbps
Width                            : 696 pixels
Height                           : 566 pixels
Display aspect ratio             : 4:3
Frame rate mode                  : Variable
Frame rate                       : 25.000 fps
Color space                      : YUV
Chroma subsampling               : 4:2:0
Bit depth                        : 8 bits
Scan type                        : Progressive
Bits/(Pixel*Frame)               : 0.147
Stream size                      : 938 MiB (87%)
Writing library                  : x264 core 157 r2935 545de2f
Encoding settings                : cabac=1 / ref=16 / deblock=1:0:0 / analyse=0x1:0x131 / me=umh / subme=10 / psy=1 / psy_rd=1.00:0.00 / mixed_ref=1 / me_range=24 / chroma_me=1 / trellis=2 / 8x8dct=0 / cqm=0 / deadzone=21,11 / fast_pskip=1 / chroma_qp_offset=-2 / threads=12 / lookahead_threads=2 / sliced_threads=0 / nr=0 / decimate=1 / interlaced=0 / bluray_compat=0 / constrained_intra=0 / bframes=8 / b_pyramid=2 / b_adapt=2 / b_bias=0 / direct=3 / weightb=1 / open_gop=0 / weightp=2 / keyint=250 / keyint_min=25 / scenecut=40 / intra_refresh=0 / rc_lookahead=60 / rc=crf / mbtree=1 / crf=19.0 / qcomp=0.60 / qpmin=0 / qpmax=69 / qpstep=4 / vbv_maxrate=50000 / vbv_bufsize=62500 / crf_max=0.0 / nal_hrd=none / filler=0 / ip_ratio=1.40 / aq=1:1.00
Default                          : Yes
Forced                           : No
DURATION                         : 01:30:42.920000000
NUMBER_OF_FRAMES                 : 136073
NUMBER_OF_BYTES                  : 1004564779
_STATISTICS_WRITING_APP          : mkvmerge v7.1.0 ('Good Love') 32bit built on Jul 27 2014 12:59:18
_STATISTICS_WRITING_DATE_UTC     : 2021-04-06 12:12:50
_STATISTICS_TAGS                 : BPS DURATION NUMBER_OF_FRAMES NUMBER_OF_BYTES
Color primaries                  : BT.470-6 System B, BT.470-6 System G, BT.601-6 625, BT.1358 625, BT.1700 625 PAL, BT.1700 625 SECAM
Transfer characteristics         : BT.709-5, BT.1361
Matrix coefficients              : BT.601-6 525, BT.1358 525, BT.1700 NTSC, SMPTE 170M

Audio
ID                               : 2
Format                           : AC-3
Format/Info                      : Audio Coding 3
Mode extension                   : CM (complete main)
Codec ID                         : A_AC3
Duration                         : 1h 30mn
Bit rate mode                    : Constant
Bit rate                         : 192 Kbps
Channel(s)                       : 1 channel
Channel positions                : Front: C
Sampling rate                    : 48.0 KHz
Bit depth                        : 16 bits
Compression mode                 : Lossy
Delay relative to video          : -5ms
Stream size                      : 125 MiB (11%)
Language                         : Spanish
Default                          : Yes
Forced                           : No
DURATION                         : 01:30:42.976000000
NUMBER_OF_FRAMES                 : 170093
NUMBER_OF_BYTES                  : 130631424
_STATISTICS_WRITING_APP          : mkvmerge v7.1.0 ('Good Love') 32bit built on Jul 27 2014 12:59:18
_STATISTICS_WRITING_DATE_UTC     : 2021-04-06 12:12:50
_STATISTICS_TAGS                 : BPS DURATION NUMBER_OF_FRAMES NUMBER_OF_BYTES


Capturas:

Imagen Imagen
Imagen Imagen
Imagen Imagen
Imagen Imagen
Imagen Imagen




Enlace:
eD2K link 1949 La Revoltosa (José Díaz Morales) SAT+WEBRip VO RTVE by droid-DCINE.mkv [1.06 Gb] 

Avatar de Usuario
gatatitania
 
Mensajes: 5598
Registrado: 16 Oct 2012 18:27
Ubicación: Gatatitania es un gato hambriento, superviviente del planeta gatatitania...
Agradecido : 2957 veces
Agradecimiento recibido: 1752 veces

Re: La revoltosa (José Díaz Morales, 1949) SATRip VO

Mensaje por gatatitania » 20 Jul 2021 16:28

¡Gracias a los dos! :yahoo: :yahoo: :yahoo:

Avatar de Usuario
tuscarola
 
Mensajes: 2683
Registrado: 25 Dic 2012 20:38
Ubicación: En el Tarragonés
Agradecido : 911 veces
Agradecimiento recibido: 1169 veces

Re: La revoltosa (José Díaz Morales, 1949) SATRip VO

Mensaje por tuscarola » 20 Jul 2021 17:22

Clásico entre los clásicos. Ni mas ni menos que Doña Carmen Sevilla y el grandísimo Tony Leblanc. Merci Droid y DCINE.
ImagenImagen
Imagen

Responder

Volver a “Largos Clásicos”