La principessa delle Canarie (P. Moffa, C. S. de Osma, 1954) DVDRip VE

Puntuación
Sin
puntuar

Tirma (Doblaje Cines 1955)

Moderador: mifune

Responder
Avatar de Usuario
DCINE
 
Mensajes: 1762
Registrado: 30 Jul 2016 20:09
Agradecido : 794 veces
Agradecimiento recibido: 3705 veces

Italia La principessa delle Canarie (P. Moffa, C. S. de Osma, 1954) DVDRip VE

Mensaje por DCINE » 21 Jul 2021 06:44

Tirma
(La principessa delle Canarie)

1954

Imagen



DIRECTOR: Paolo Moffa, Carlos Serrano de Osma
PRODUCTORA: Coproducción Italia-España; CIFESA, Film Costellazione Produzione, Infies
GUIÓN: M. Carvajal, Antonio Cibotto
MÚSICA: Franco Ferrara
FOTOGRAFÍA: Enzo Serafin


Imagen

ARGUMENTO España, 1450. Las Islas Canarias, con una posición estratégica de primer orden en el océano Atlántico, se resisten a a ser conquistadas por Castilla, que sólo ocupa pequeñas zonas del litoral. En la isla de Gran Canaria, Guanerteme, el viejo rey de los gunches, y su hija, la princesa Guayarmina, deciden llegar a un acuerdo con los españoles para evitar la guerra, en contra de la voluntad del Gran Faycán (sumo sacerdote) y de sus partidarios. Un día, Guayarmina es sorprendida en el bosque por Hernán, un oficial español que se enamora de ella, ignorando su condición de princesa. Tras el levantamiento del Gran Faycán y después de librar duras y sangrientas batallas, la paz y el amor esperan al joven héroe de los castellanos y a la princesa guanche. (FILMAFFINITY) IMDB: https://www.imdb.com/title/tt0047367/

ImagenImagenImagen
ImagenImagenImagen
ImagenImagenImagen


Reparto: Silvana Pampanini, Marcello Mastroianni, Gustavo Rojo, José María Lado, Elvira Quintilla, José María Rodero, Félix de Pomés

Imagen

Datos técnicos



Código: Seleccionar todo

General:
Complete name                    : 1954 Tirma (La principessa delle Canarie) (P. Moffa, C. S. de Osma) DVDRip VE (Doblaje Cines 1955) by DCINE.mkv
Format                           : Matroska
Format version                   : Version 4 / Version 2
File size                        : 2.32 GiB
Duration                         : 1h 19mn
Overall bit rate                 : 4 152 Kbps
Movie name                       : 1954 Tirma/La principessa delle Canarie (Paolo Moffa, Carlos Serrano de Osma, 1954) DVDRip VE (Doblaje Cines 1955) by DCINE.mkv
Encoded date                     : UTC 2021-07-01 14:35:14
Writing application              : mkvmerge v7.1.0 ('Good Love') 32bit built on Jul 27 2014 12:59:18
Writing library                  : libebml v1.3.0 + libmatroska v1.4.1

Video
ID                               : 1
Format                           : AVC
Format/Info                      : Advanced Video Codec
Format profile                   : Main@L4.1
Format settings, CABAC           : Yes
Format settings, ReFrames        : 16 frames
Codec ID                         : V_MPEG4/ISO/AVC
Duration                         : 1h 19mn
Bit rate                         : 3 877 Kbps
Width                            : 712 pixels
Height                           : 572 pixels
Display aspect ratio             : 4:3
Frame rate mode                  : Variable
Frame rate                       : 25.000 fps
Color space                      : YUV
Chroma subsampling               : 4:2:0
Bit depth                        : 8 bits
Scan type                        : Progressive
Bits/(Pixel*Frame)               : 0.381
Stream size                      : 2.16 GiB (93%)
Writing library                  : x264 core 157 r2935 545de2f
Encoding settings                : cabac=1 / ref=16 / deblock=1:0:0 / analyse=0x1:0x131 / me=umh / subme=10 / psy=1 / psy_rd=1.00:0.00 / mixed_ref=1 / me_range=24 / chroma_me=1 / trellis=2 / 8x8dct=0 / cqm=0 / deadzone=21,11 / fast_pskip=1 / chroma_qp_offset=-2 / threads=12 / lookahead_threads=2 / sliced_threads=0 / nr=0 / decimate=1 / interlaced=0 / bluray_compat=0 / constrained_intra=0 / bframes=8 / b_pyramid=2 / b_adapt=2 / b_bias=0 / direct=3 / weightb=1 / open_gop=0 / weightp=2 / keyint=250 / keyint_min=25 / scenecut=40 / intra_refresh=0 / rc_lookahead=60 / rc=crf / mbtree=1 / crf=18.0 / qcomp=0.60 / qpmin=0 / qpmax=69 / qpstep=4 / vbv_maxrate=50000 / vbv_bufsize=62500 / crf_max=0.0 / nal_hrd=none / filler=0 / ip_ratio=1.40 / aq=1:1.00
Default                          : Yes
Forced                           : No
DURATION                         : 01:19:54.000000000
NUMBER_OF_FRAMES                 : 119850
NUMBER_OF_BYTES                  : 2371762180
_STATISTICS_WRITING_APP          : mkvmerge v7.1.0 ('Good Love') 32bit built on Jul 27 2014 12:59:18
_STATISTICS_WRITING_DATE_UTC     : 2021-07-01 14:35:14
_STATISTICS_TAGS                 : BPS DURATION NUMBER_OF_FRAMES NUMBER_OF_BYTES
Color primaries                  : BT.470-6 System B, BT.470-6 System G, BT.601-6 625, BT.1358 625, BT.1700 625 PAL, BT.1700 625 SECAM
Transfer characteristics         : BT.709-5, BT.1361
Matrix coefficients              : BT.601-6 525, BT.1358 525, BT.1700 NTSC, SMPTE 170M

Audio
ID                               : 2
Format                           : AC-3
Format/Info                      : Audio Coding 3
Mode extension                   : CM (complete main)
Codec ID                         : A_AC3
Duration                         : 1h 19mn
Bit rate mode                    : Constant
Bit rate                         : 192 Kbps
Channel(s)                       : 2 channels
Channel positions                : Front: L R
Sampling rate                    : 48.0 KHz
Bit depth                        : 16 bits
Compression mode                 : Lossy
Stream size                      : 110 MiB (5%)
Title                            : Doblaje Cines 1955
Language                         : Spanish
Default                          : Yes
Forced                           : No
DURATION                         : 01:19:53.984000000
NUMBER_OF_FRAMES                 : 149812
NUMBER_OF_BYTES                  : 115055616
_STATISTICS_WRITING_APP          : mkvmerge v7.1.0 ('Good Love') 32bit built on Jul 27 2014 12:59:18
_STATISTICS_WRITING_DATE_UTC     : 2021-07-01 14:35:14
_STATISTICS_TAGS                 : BPS DURATION NUMBER_OF_FRAMES NUMBER_OF_BYTES

Menu #1
00:00:00.080                     : :Chapter 1
00:09:20.240                     : :Chapter 2
00:19:01.040                     : :Chapter 3
00:28:25.520                     : :Chapter 4
00:37:14.000                     : :Chapter 5
00:44:14.480                     : :Chapter 6
00:54:32.720                     : :Chapter 7
01:02:57.680                     : :Chapter 8
01:10:55.760                     : :Chapter 9

Menu #2
00:00:00.080                     : en:Chapter 01
00:09:20.240                     : en:Chapter 02
00:19:01.040                     : en:Chapter 03
00:28:25.520                     : en:Chapter 04
00:37:14.000                     : en:Chapter 05
00:44:14.480                     : en:Chapter 06
00:54:32.720                     : en:Chapter 07
01:02:57.680                     : en:Chapter 08
01:10:55.760                     : en:Chapter 09


Capturas:

Imagen Imagen
Imagen Imagen
Imagen Imagen
Imagen Imagen
Imagen Imagen




Enlace:
eD2K link 1954 Tirma (La principessa delle Canarie) (P. Moffa, C. S. de Osma) DVDRip VE (Do...55) by DCINE.mkv [2.32 Gb] 

joramor
 
Mensajes: 216
Registrado: 28 Nov 2012 20:59
Agradecido : 653 veces
Agradecimiento recibido: 59 veces

Re: La principessa delle Canarie (P. Moffa, C. S. de Osma, 1954) DVDRip VE

Mensaje por joramor » 21 Jul 2021 23:43

Muchas gracias!

brenda21
 
Mensajes: 108
Registrado: 01 Dic 2012 00:00
Agradecido : 1 vez
Agradecimiento recibido: 77 veces

Re: La principessa delle Canarie (P. Moffa, C. S. de Osma, 1954) DVDRip VE

Mensaje por brenda21 » 22 Jul 2021 01:14

Muchas gracias DCINE :up:

Responder

Volver a “Largos Clásicos”