Il Gatto a Nove Code (Dario Argento, 1971) Ver índice

Puntuación
5/10
1 voto

El Gato de las Nueve Colas

Moderador: Monsieur Lange

Responder
Avatar de Usuario
professor keller
 
Mensajes: 4925
Registrado: 03 Oct 2012 10:07
Agradecido : 359 veces
Agradecimiento recibido: 1641 veces

Italia Il Gatto a Nove Code (Dario Argento, 1971) Ver índice

Mensaje por professor keller » 03 Oct 2012 17:46

Índice de Ripeos: -

*Nota: Tenga en cuenta la calidad de cada ripeo para hacer la mejor elección. Haga click aquí para más información.
Il Gatto a Nove Code / El Gato de las Nueve Colas (Dario Argento, 1971)

Imagen
IMDb

Escrita y dirigida por
Dario Argento

Protagonizada por
James Franciscus, Karl Malden, Catherine Spaak, Pier Paolo Capponi

Sinopsis: Una noche, mientras vuelven a casa, Franco Arno, ciego de nacimiento, y su sobrina Lori son testigos de una siniestra discusión entre un ladrón y un chantajista, que acaba en asesinato. A pesar de su invalidez, Franco colaborará con el periodista Carlo Giordani para desentrañar el misterio que se oculta tras una enrevesada trama de espionaje industrial y crímenes brutales. Ambos parten de una teoría según la cual las tendencias psicopáticas de un individuo pueden ser detectadas estudiando la configuración de sus cromosomas.

Info

Código: Seleccionar todo

Running Time:  1:46:56
[b]AUDIO:[/b] 0 - AC3 (0x2000)
     Average Bitrate Per Sec:  448 kb/s
     Samples Rate:  48000 Hz
     Channels:  6
[b]VIDEO: [/b] DX50
     B-VOP: No
     S(GMC)-VOP: No
     QuarterPixel: No
     Frame Size:  640 x 272
     Frames Rate:  25.000
Capturas

Imagen
Imagen
Imagen
Imagen
Imagen
Imagen
Imagen

eMule
eD2K link Il Gatto A Nove Code.avi [1.37 Gb] 

Subtítulos en español (revisados por keller)
http://www.opensubtitles.org/es/subtitl ... code-il-es
En opinión de este gil (y a pesar de lo que digan la mayoría de los argentianos) la mejor película de la así llamada "trilogía de los animales", El Gato de las Nueve Colas estuvo durante mucho tiempo sin un buen ripeo disponible en la web, y lo que es peor, sin subtítulos en español.

Afortunadamente apareció hace poco en la mula un DVDRip en condiciones, en italiano, con el AR y la temperatura de color correcta, y buena calidad de imagen y definición (1.37GB).

Gracias a spindizzy, de Allzine, que gentilmente extrajo los subs de su DVD español (de tan mala calidad de imagen como el resto de los rips que hay en la web), pudimos contar con subs en castellano, no sin antes tener que resincronizarlos secuencia por secuencia (un parto, como siempre) y revisarlos en su traducción, especialmente cuando me encontraba con líneas en donde la frase italiana "¡Estúpido periodista, rídículo y burgués!" había sido traducida como "periodista de pacotilla" :mrgreen:

James Franciscus hace el papel de su vida, y Karl "Biscochito" Malden un ciego que sería la envidia del mismísimo Zatoichi. Argento, por su parte, hace gala de ese estilo visual audaz y desenfrenado que supo tener en sus inicios.

Párrafo aparte merece la extraordinaria banda de sonido de Morricone, casi enteramente atonal, a excepción de algunos ostinatos y el tan bello como inolvidable y melancólico tema principal.

A disfrutar del mejor Argento.
"Urge que hagamos una crítica despiadada de todo lo que existe, despiadada en el sentido de que nuestra crítica no ha de temer ni sus propios resultados ni el conflicto con los poderes establecidos.” Karl Marx

anbl2
 
Mensajes: 152
Registrado: 18 Oct 2012 11:37
Agradecido : 2052 veces
Agradecimiento recibido: 9 veces

Re: Il Gatto a Nove Code (Dario Argento, 1971) DVDRip VOSE

Mensaje por anbl2 » 18 Oct 2012 12:18

Muchas gracias professor keller.

Avatar de Usuario
bonneville
 
Mensajes: 152
Registrado: 05 Nov 2012 17:47
Agradecimiento recibido: 43 veces

Re: Il Gatto a Nove Code (Dario Argento, 1971) DVDRip VOSE

Mensaje por bonneville » 15 Dic 2012 15:00

vaya trabajazo con los subs, muchísimas gracias.

Avatar de Usuario
juannavarrete
 
Mensajes: 2828
Registrado: 16 Oct 2012 15:21
Ubicación: En la frontera de la webtern
Agradecido : 11 veces
Agradecimiento recibido: 2836 veces

Italia Il gatto a nove code (Dario Argento, 1971) HDRip 720p Dual SE

Mensaje por juannavarrete » 04 Oct 2013 11:05

"Sitherkiller" en DXC
¨ EL GATO DE LAS NUEVE COLAS ¨
Il gatto a nove code (Dario Argento, 1971) HDRip 720p DUAL SE
Imagen


FICHA DE LA PELÍCULA

TITULO ORIGINAL: Il gatto a nove code / The cat o' nine tails
AÑO DE PRODUCCIÓN: 1971
NACIONALIDAD: Italia
DIRECTOR: Dario Argento


REPARTO:
James Franciscus,
Karl Malden,
Pier Paolo Capponi,
Catherine Spaak,
Horst Frank,
Rada Rassimov,
Aldo Reggiani


SINOPSIS:
Un reportero (James Franciscus) se une a otro ex periodista ciego (Karl Malden) para investigar las actividades de un peligroso asesino que ha atacado al guardia de un centro de investigaciones genéticas y poco a poco va cometiendo más crímenes.


Imagen


DATOS DEL RIPEO

FUENTE: Blu-Ray Mayo 2011 ''The Cat O' Nine Tails'' editado por Blue Underground
VIDEO: H264 MP4 AVC
AUDIO: AC3 192kb Mono Castellano, AC3 256kb Estéreo Inglés
RESOLUCIÓN: 1280x544
PROPORCIÓN: 2.35:1
FRAMES: 23.976 fps
DURACIÓN:
PESO: 4.41gb
SUBTÍTULOS: Se incluyen en castellano e inglés.


DATOS completos del RIPEO
Spoiler:
General
Complete name : C:\Users\Usuario\Videos\Montaje\DEFINITIVO\El.gato.de.nueve.colas.1971.(BDRip.HD.720p.AC3.Dual.[Spanish.English].Subs.[Castellano.Ingles]).By.SitherKiller.mkv
Format : Matroska
File size : 4.42 GiB
Duration : 1h 51mn
Overall bit rate : 5 657 Kbps
Encoded date : UTC 2013-10-02 15:47:35
Writing application : mkvmerge v5.8.0 ('No Sleep / Pillow') built on Sep 2 2012 15:37:04
Writing library : libebml v1.2.3 + libmatroska v1.3.0

Video
ID : 1
Format : AVC
Format/Info : Advanced Video Codec
Format profile : High@L4.1
Format settings, CABAC : Yes
Format settings, ReFrames : 5 frames
Format settings, GOP : M=4, N=16
Muxing mode : Container profile=Unknown@4.1
Codec ID : V_MPEG4/ISO/AVC
Duration : 1h 51mn
Bit rate : 5 208 Kbps
Width : 1 280 pixels
Height : 544 pixels
Display aspect ratio : 2.35:1
Frame rate : 23.976 fps
Color space : YUV
Chroma subsampling : 4:2:0
Bit depth : 8 bits
Scan type : Progressive
Bits/(Pixel*Frame) : 0.312
Stream size : 3.98 GiB (90%)
Writing library : x264 core 125 r2208 d9d2288
Encoding settings : cabac=1 / ref=5 / deblock=1:-1:-1 / analyse=0x3:0x113 / me=umh / subme=8 / psy=1 / psy_rd=1.00:0.10 / mixed_ref=1 / me_range=16 / chroma_me=1 / trellis=1 / 8x8dct=1 / cqm=0 / deadzone=21,11 / fast_pskip=1 / chroma_qp_offset=-3 / threads=6 / lookahead_threads=1 / sliced_threads=0 / nr=0 / decimate=1 / interlaced=0 / bluray_compat=0 / constrained_intra=0 / bframes=3 / b_pyramid=2 / b_adapt=2 / b_bias=0 / direct=3 / weightb=1 / open_gop=0 / weightp=2 / keyint=250 / keyint_min=23 / scenecut=40 / intra_refresh=0 / rc_lookahead=50 / rc=2pass / mbtree=1 / bitrate=5208 / ratetol=1.0 / qcomp=0.60 / qpmin=0 / qpmax=69 / qpstep=4 / cplxblur=20.0 / qblur=0.5 / ip_ratio=1.40 / aq=1:1.00
Language : English

Audio #1
ID : 2
Format : AC-3
Format/Info : Audio Coding 3
Mode extension : CM (complete main)
Codec ID : A_AC3
Duration : 1h 51mn
Bit rate mode : Constant
Bit rate : 192 Kbps
Channel(s) : 2 channels
Channel positions : Front: L R
Sampling rate : 48.0 KHz
Bit depth : 16 bits
Stream size : 153 MiB (3%)
Language : Spanish

Audio #2
ID : 3
Format : AC-3
Format/Info : Audio Coding 3
Mode extension : CM (complete main)
Codec ID : A_AC3
Duration : 1h 51mn
Bit rate mode : Constant
Bit rate : 256 Kbps
Channel(s) : 2 channels
Channel positions : Front: L R
Sampling rate : 48.0 KHz
Bit depth : 16 bits
Stream size : 205 MiB (5%)
Language : English

Text #1
ID : 4
Format : UTF-8
Codec ID : S_TEXT/UTF8
Codec ID/Info : UTF-8 Plain Text
Language : Spanish

Text #2
ID : 5
Format : UTF-8
Codec ID : S_TEXT/UTF8
Codec ID/Info : UTF-8 Plain Text
Language : English

Imagen


Imagen



Imagen

Imagen




CAPTURAS
Imagen
Imagen
Imagen
Imagen
Imagen



Imagen
Enlace:
eD2K link El.gato.de.nueve.colas.1971.(BDRip.HD.720p.AC3.Dual.[Spanish.English].Subs.[Caste...SitherKiller.mkv [4.42 Gb] 



A disfrutar de la peli !!!
(Gracias Sitherkiller)

Imagen

Un … Imagen…abrazo
Última edición por juannavarrete el 06 Oct 2013 18:34, editado 1 vez en total.
Es necesario para su distribución, dejar las descargas obtenidas en el incoming.
(Lo que es bueno para uno, es bueno para todos)

xeneise007
 
Mensajes: 1027
Registrado: 08 Ene 2013 12:19
Ubicación: Reino de Aragón
Agradecido : 1224 veces
Agradecimiento recibido: 352 veces

Re: Il gatto a nove code (Dario Argento, 1971) HDRip 720p Dual SE

Mensaje por xeneise007 » 05 Oct 2013 08:22

Gracias Juannavarrete, otra que va para la coleccion, :yahoo:

Un saludo :hi:

jcaf
 
Mensajes: 11
Registrado: 03 Dic 2012 03:50

Re: Il gatto a nove code (Dario Argento, 1971) HDRip 720p Dual SE

Mensaje por jcaf » 06 Oct 2013 15:18

Muchas gracias por la película y con esta calidad.
La tenía con calidad vhs, así que no te puedes imaginar la alegría que me he llevado.

Avatar de Usuario
Gooffy
 
Mensajes: 2269
Registrado: 21 Oct 2012 15:35
Ubicación: Atlántida, Uruguay
Agradecido : 29 veces
Agradecimiento recibido: 54 veces

Re: Il gatto a nove code (Dario Argento, 1971) HDRip 720p Dual SE

Mensaje por Gooffy » 08 Oct 2013 03:46

bajando HDRip 720 :yahoo: gracias....!!!!

Avatar de Usuario
janca
 
Mensajes: 2604
Registrado: 16 Oct 2012 16:39
Agradecido : 9516 veces
Agradecimiento recibido: 150 veces

Re: Il gatto a nove code (Dario Argento, 1971) HDRip 720p Dual SE

Mensaje por janca » 08 Oct 2013 06:53

Gracias

Avatar de Usuario
Gooffy
 
Mensajes: 2269
Registrado: 21 Oct 2012 15:35
Ubicación: Atlántida, Uruguay
Agradecido : 29 veces
Agradecimiento recibido: 54 veces

Re: Il gatto a nove code (Dario Argento, 1971) HDRip 720p Dual SE

Mensaje por Gooffy » 16 Oct 2013 16:21

Completada y compartiendo, gracias...!!! :genial:

Avatar de Usuario
locotus
 
Mensajes: 1059
Registrado: 16 Oct 2012 18:18
Agradecido : 62 veces
Agradecimiento recibido: 6421 veces

Italia Il Gatto A Nove Code (Dario Argento, 1971) BRRip TRIAl SE

Mensaje por locotus » 06 May 2021 16:49

professor keller escribió:
03 Oct 2012 17:46
Índice de Ripeos: -

*Nota: Tenga en cuenta la calidad de cada ripeo para hacer la mejor elección. Haga click aquí para más información.
Il Gatto a Nove Code / El Gato de las Nueve Colas (Dario Argento, 1971)

Imagen
IMDb

Escrita y dirigida por
Dario Argento

Protagonizada por
James Franciscus, Karl Malden, Catherine Spaak, Pier Paolo Capponi

Sinopsis: Una noche, mientras vuelven a casa, Franco Arno, ciego de nacimiento, y su sobrina Lori son testigos de una siniestra discusión entre un ladrón y un chantajista, que acaba en asesinato. A pesar de su invalidez, Franco colaborará con el periodista Carlo Giordani para desentrañar el misterio que se oculta tras una enrevesada trama de espionaje industrial y crímenes brutales. Ambos parten de una teoría según la cual las tendencias psicopáticas de un individuo pueden ser detectadas estudiando la configuración de sus cromosomas.
Capturas:
ImagenImagenImagenImagen

ImagenImagenImagenImagen

Código: Seleccionar todo

General
Unique ID                   : 70106002066291857882457905728327122121 (0x34BDECC405E71F75CA320F5CC4B5FCC9)
Complete name               : Il Gatto A Nove Code (1971) BRRip.Trial.mkv
Format                      : Matroska
Format version              : Version 4
File size                   : 1.97 GiB
Duration                    : 1 h 51 min
Overall bit rate            : 2 527 kb/s
Encoded date                : UTC 2021-04-27 23:13:31
Writing application         : mkvmerge v56.1.0 ('My Friend') 64-bit
Writing library             : libebml v1.4.2 + libmatroska v1.6.4

Video
ID                          : 1
Format                      : HEVC
Format/Info                 : High Efficiency Video Coding
Format profile              : Main 10@L4@Main
Codec ID                    : V_MPEGH/ISO/HEVC
Duration                    : 1 h 51 min
Bit rate                    : 2 001 kb/s
Width                       : 1 920 pixels
Height                      : 816 pixels
Display aspect ratio        : 2.35:1
Frame rate mode             : Constant
Frame rate                  : 23.976 (24000/1001) FPS
Color space                 : YUV
Chroma subsampling          : 4:2:0
Bit depth                   : 10 bits
Bits/(Pixel*Frame)          : 0.053
Stream size                 : 1.56 GiB (79%)
Writing library             : x265 3.3+4-rarbg-30eb4de83092:[Linux][GCC 8.3.1][64 bit] 10bit
Encoding settings           : cpuid=1111039 / frame-threads=4 / wpp / no-pmode / no-pme / no-psnr / no-ssim / log-level=2 / input-csp=1 / input-res=1920x816 / interlace=0 / total-frames=0 / level-idc=0 / high-tier=1 / uhd-bd=0 / ref=4 / no-allow-non-conformance / no-repeat-headers / annexb / no-aud / no-hrd / info / hash=0 / no-temporal-layers / open-gop / min-keyint=23 / keyint=250 / gop-lookahead=0 / bframes=4 / b-adapt=2 / b-pyramid / bframe-bias=0 / rc-lookahead=25 / lookahead-slices=4 / scenecut=40 / hist-scenecut=0 / radl=0 / no-splice / no-intra-refresh / ctu=64 / min-cu-size=8 / rect / no-amp / max-tu-size=32 / tu-inter-depth=1 / tu-intra-depth=1 / limit-tu=0 / rdoq-level=2 / dynamic-rd=0.00 / no-ssim-rd / signhide / no-tskip / nr-intra=0 / nr-inter=0 / no-constrained-intra / strong-intra-smoothing / max-merge=3 / limit-refs=3 / limit-modes / me=3 / subme=3 / merange=57 / temporal-mvp / no-frame-dup / no-hme / weightp / no-weightb / no-analyze-src-pics / deblock=0:0 / no-sao / no-sao-non-deblock / rd=4 / selective-sao=0 / no-early-skip / rskip / no-fast-intra / no-tskip-fast / no-cu-lossless / no-b-intra / no-splitrd-skip / rdpenalty=0 / psy-rd=2.00 / psy-rdoq=1.00 / no-rd-refine / no-lossless / cbqpoffs=0 / crqpoffs=0 / rc=abr / bitrate=2000 / qcomp=0.60 / qpstep=4 / stats-write=0 / stats-read=2 / cplxblur=20.0 / qblur=0.5 / ipratio=1.40 / pbratio=1.30 / aq-mode=3 / aq-strength=1.00 / cutree / zone-count=0 / no-strict-cbr / qg-size=32 / no-rc-grain / qpmax=69 / qpmin=0 / no-const-vbv / sar=1 / overscan=0 / videoformat=5 / range=0 / colorprim=2 / transfer=2 / colormatrix=2 / chromaloc=0 / display-window=0 / cll=0,0 / min-luma=0 / max-luma=1023 / log2-max-poc-lsb=8 / vui-timing-info / vui-hrd-info / slices=1 / no-opt-qp-pps / no-opt-ref-list-length-pps / no-multi-pass-opt-rps / scenecut-bias=0.05 / hist-threshold=0.01 / no-opt-cu-delta-qp / no-aq-motion / no-hdr10 / no-hdr10-opt / no-dhdr10-opt / no-idr-recovery-sei / analysis-reuse-level=0 / analysis-save-reuse-level=0 / analysis-load-reuse-level=0 / scale-factor=0 / refine-intra=0 / refine-inter=0 / refine-mv=1 / refine-ctu-distortion=0 / no-limit-sao / ctu-info=0 / no-lowpass-dct / refine-analysis-type=0 / copy-pic=1 / max-ausize-factor=1.0 / no-dynamic-refine / no-single-sei / no-hevc-aq / no-svt / no-field / qp-adaptation-range=1.00 / no-scenecut-aware-qpconformance-window-offsets / right=0 / bottom=0
Default                     : Yes
Forced                      : No

Audio #1
ID                          : 2
Format                      : AAC LC
Format/Info                 : Advanced Audio Codec Low Complexity
Codec ID                    : A_AAC-2
Duration                    : 1 h 51 min
Bit rate                    : 196 kb/s
Channel(s)                  : 2 channels
Channel layout              : L R
Sampling rate               : 48.0 kHz
Frame rate                  : 46.875 FPS (1024 SPF)
Compression mode            : Lossy
Delay relative to video     : 857 ms
Stream size                 : 157 MiB (8%)
Language                    : Italian
Default                     : Yes
Forced                      : No

Audio #2
ID                          : 3
Format                      : AAC Main
Format/Info                 : Advanced Audio Codec
Codec ID                    : A_AAC-1
Duration                    : 1 h 51 min
Bit rate                    : 96.0 kb/s
Channel(s)                  : 2 channels
Channel layout              : L R
Sampling rate               : 44.1 kHz
Frame rate                  : 43.066 FPS (1024 SPF)
Compression mode            : Lossy
Delay relative to video     : 73 ms
Stream size                 : 76.7 MiB (4%)
Language                    : Spanish
Default                     : No
Forced                      : No

Audio #3
ID                          : 4
Format                      : AAC LC
Format/Info                 : Advanced Audio Codec Low Complexity
Codec ID                    : A_AAC-2
Duration                    : 1 h 51 min
Bit rate                    : 224 kb/s
Channel(s)                  : 1 channel
Channel layout              : C
Sampling rate               : 48.0 kHz
Frame rate                  : 46.875 FPS (1024 SPF)
Compression mode            : Lossy
Delay relative to video     : -43 ms
Stream size                 : 179 MiB (9%)
Language                    : English
Default                     : No
Forced                      : No

Text #1
ID                          : 5
Format                      : VobSub
Muxing mode                 : zlib
Codec ID                    : S_VOBSUB
Codec ID/Info               : Picture based subtitle format used on DVDs
Duration                    : 1 h 49 min
Bit rate                    : 6 393 b/s
Count of elements           : 917
Stream size                 : 5.00 MiB (0%)
Language                    : English
Default                     : No
Forced                      : No

Text #2
ID                          : 6
Format                      : VobSub
Muxing mode                 : zlib
Codec ID                    : S_VOBSUB
Codec ID/Info               : Picture based subtitle format used on DVDs
Duration                    : 1 h 49 min
Bit rate                    : 6 185 b/s
Count of elements           : 922
Stream size                 : 4.84 MiB (0%)
Language                    : Spanish
Default                     : Yes
Forced                      : No
Rip del grupo VXT, untouched.
Audio y subs en español tomados del rip de Shiterkiller. Ingleses bajaron con el equipo.

Película:
eD2K link Il Gatto A Nove Code (1971) BRRip.Trial.mkv [1.97 Gb] 
“Si no lees los periódicos estás desinformado”.
Y si los lees estás mal informado”.
Denzel Washington.

Responder

Volver a “Largos Modernos”