Mio Caro Assassino (Tonino Valerii, 1972) BRRip Dual

Puntuación
Sin
puntuar

Sumario Sangriento De La Pequeña Estefania.

Moderador: Monsieur Lange

Responder
Avatar de Usuario
locotus
 
Mensajes: 1010
Registrado: 16 Oct 2012 18:18
Agradecido : 53 veces
Agradecimiento recibido: 6067 veces

Italia Mio Caro Assassino (Tonino Valerii, 1972) BRRip Dual

Mensaje por locotus » 03 May 2021 04:46

- Mio Caro Assassino - Sumario sangriento de la pequeña Estefania - My Dear Killer -
Imagen

Directed by Tonino Valerii

Writing Credits:
Roberto Leoni ... (screenplay & story) and
Franco Bucceri ... (screenplay & story)
José Gutiérrez Maesso
Tonino Valerii

Cast:
George Hilton ... Inspector Luca Peretti
Salvo Randone ... Chief Marò
William Berger ... Giorgio Canavese
Marilù Tolo ... Dr. Anna Borgese
Manuel Zarzo ... Brigadier Bozzi (as Manolo Zarzo)
Patty Shepard ... Paola Rossi, the teacher
Piero Lulli ... Alessandro Moroni
Helga Liné ... Mrs. Paradisi
Tullio Valli ... Oliviero Moroni
Dante Maggio ... Mattia Guardapelle
Dana Ghia ... Eleonora Moroni
Alfredo Mayo ... Beniamino
Mónica Randall ... Carla Moroni
Corrado Gaipa ... Head of Insurance Company
Lara Wendel ... Stefania Moroni (as Daniela Rachele Barnes)

Runtime: 100 min
Sound Mix: Mono
Color: Color
Aspect Ratio: 2.35 : 1

https://www.imdb.com/title/tt0067434/

Sinopsis:
El comisario Luca Peretti está convencido de que hay una estrecha relación entre dos homicidios y el
asesinato de una niña. A pesar de que el asesino avisa al comisario de cada uno de sus pasos, va matando
a todas las personas que podrían corroborar la hipótesis de Peretti.(FILMAFFINITY)
Capturas:

ImagenImagenImagenImagen

ImagenImagenImagenImagen
Datos:

Código: Seleccionar todo

General
Unique ID                   : 126680169120986726235885203989231233607 (0x5F4DB68E2E6AF10EDBC3FA45B06EEA47)
Complete name               : Mio Caro Assassino (1972) BRRip.Dual.mkv
Format                      : Matroska
Format version              : Version 4
File size                   : 1.62 GiB
Duration                    : 1 h 40 min
Overall bit rate            : 2 323 kb/s
Encoded date                : UTC 2021-05-03 02:21:08
Writing application         : mkvmerge v56.1.0 ('My Friend') 64-bit
Writing library             : libebml v1.4.2 + libmatroska v1.6.4

Video
ID                          : 1
Format                      : HEVC
Format/Info                 : High Efficiency Video Coding
Format profile              : Main 10@L4@Main
Codec ID                    : V_MPEGH/ISO/HEVC
Duration                    : 1 h 40 min
Bit rate                    : 2 001 kb/s
Width                       : 1 920 pixels
Height                      : 804 pixels
Display aspect ratio        : 2.40:1
Frame rate mode             : Constant
Frame rate                  : 23.976 (24000/1001) FPS
Color space                 : YUV
Chroma subsampling          : 4:2:0
Bit depth                   : 10 bits
Bits/(Pixel*Frame)          : 0.054
Stream size                 : 1.40 GiB (86%)
Writing library             : x265 3.3+4-rarbg-30eb4de83092:[Linux][GCC 8.3.1][64 bit] 10bit
Encoding settings           : cpuid=1111039 / frame-threads=4 / wpp / no-pmode / no-pme / no-psnr / no-ssim / log-level=2 / input-csp=1 / input-res=1920x804 / interlace=0 / total-frames=0 / level-idc=0 / high-tier=1 / uhd-bd=0 / ref=4 / no-allow-non-conformance / no-repeat-headers / annexb / no-aud / no-hrd / info / hash=0 / no-temporal-layers / open-gop / min-keyint=23 / keyint=250 / gop-lookahead=0 / bframes=4 / b-adapt=2 / b-pyramid / bframe-bias=0 / rc-lookahead=25 / lookahead-slices=4 / scenecut=40 / hist-scenecut=0 / radl=0 / no-splice / no-intra-refresh / ctu=64 / min-cu-size=8 / rect / no-amp / max-tu-size=32 / tu-inter-depth=1 / tu-intra-depth=1 / limit-tu=0 / rdoq-level=2 / dynamic-rd=0.00 / no-ssim-rd / signhide / no-tskip / nr-intra=0 / nr-inter=0 / no-constrained-intra / strong-intra-smoothing / max-merge=3 / limit-refs=3 / limit-modes / me=3 / subme=3 / merange=57 / temporal-mvp / no-frame-dup / no-hme / weightp / no-weightb / no-analyze-src-pics / deblock=0:0 / no-sao / no-sao-non-deblock / rd=4 / selective-sao=0 / no-early-skip / rskip / no-fast-intra / no-tskip-fast / no-cu-lossless / no-b-intra / no-splitrd-skip / rdpenalty=0 / psy-rd=2.00 / psy-rdoq=1.00 / no-rd-refine / no-lossless / cbqpoffs=0 / crqpoffs=0 / rc=abr / bitrate=2000 / qcomp=0.60 / qpstep=4 / stats-write=0 / stats-read=2 / cplxblur=20.0 / qblur=0.5 / ipratio=1.40 / pbratio=1.30 / aq-mode=3 / aq-strength=1.00 / cutree / zone-count=0 / no-strict-cbr / qg-size=32 / no-rc-grain / qpmax=69 / qpmin=0 / no-const-vbv / sar=1 / overscan=0 / videoformat=5 / range=0 / colorprim=2 / transfer=2 / colormatrix=2 / chromaloc=0 / display-window=0 / cll=0,0 / min-luma=0 / max-luma=1023 / log2-max-poc-lsb=8 / vui-timing-info / vui-hrd-info / slices=1 / no-opt-qp-pps / no-opt-ref-list-length-pps / no-multi-pass-opt-rps / scenecut-bias=0.05 / hist-threshold=0.01 / no-opt-cu-delta-qp / no-aq-motion / no-hdr10 / no-hdr10-opt / no-dhdr10-opt / no-idr-recovery-sei / analysis-reuse-level=0 / analysis-save-reuse-level=0 / analysis-load-reuse-level=0 / scale-factor=0 / refine-intra=0 / refine-inter=0 / refine-mv=1 / refine-ctu-distortion=0 / no-limit-sao / ctu-info=0 / no-lowpass-dct / refine-analysis-type=0 / copy-pic=1 / max-ausize-factor=1.0 / no-dynamic-refine / no-single-sei / no-hevc-aq / no-svt / no-field / qp-adaptation-range=1.00 / no-scenecut-aware-qpconformance-window-offsets / right=0 / bottom=0
Default                     : Yes
Forced                      : No

Audio #1
ID                          : 2
Format                      : AAC LC
Format/Info                 : Advanced Audio Codec Low Complexity
Codec ID                    : A_AAC-2
Duration                    : 1 h 40 min
Bit rate                    : 224 kb/s
Channel(s)                  : 2 channels
Channel layout              : L R
Sampling rate               : 48.0 kHz
Frame rate                  : 46.875 FPS (1024 SPF)
Compression mode            : Lossy
Delay relative to video     : -43 ms
Stream size                 : 160 MiB (10%)
Language                    : Italian
Default                     : Yes
Forced                      : No

Audio #2
ID                          : 3
Format                      : AAC Main
Format/Info                 : Advanced Audio Codec
Codec ID                    : A_AAC-1
Duration                    : 1 h 40 min
Bit rate                    : 96.0 kb/s
Channel(s)                  : 2 channels
Channel layout              : L R
Sampling rate               : 48.0 kHz
Frame rate                  : 46.875 FPS (1024 SPF)
Compression mode            : Lossy
Delay relative to video     : -43 ms
Stream size                 : 68.6 MiB (4%)
Language                    : Spanish
Default                     : No
Forced                      : No
Ripeo del grupo VXT, audio y video untouched.
Audios español tomado de un rip descargado por eMule.
Este audio contiene varias partes en italiano.

Película:
eD2K link Mio Caro Assassino (1972) BRRip.Dual.mkv [1.62 Gb] 
“Si no lees los periódicos estás desinformado”.
Y si los lees estás mal informado”.
Denzel Washington.

Avatar de Usuario
Graveland
 
Mensajes: 4368
Registrado: 22 Nov 2012 15:30
Agradecido : 2975 veces
Agradecimiento recibido: 3949 veces

Re: Mio Caro Assassino (Tonino Valerii, 1972) BRRip Dual

Mensaje por Graveland » 03 May 2021 12:40

Muchas gracias, locotus.

Avatar de Usuario
tonapar1
 
Mensajes: 5651
Registrado: 16 Oct 2012 20:19
Agradecido : 1124 veces
Agradecimiento recibido: 1950 veces

Re: Mio Caro Assassino (Tonino Valerii, 1972) BRRip Dual

Mensaje por tonapar1 » 04 May 2021 11:35

Muchas gracias por el ripeo a locotus y grupo vxt. Un saludo a ambos. Mejoro la copia que baje de terrorfantastico.

Avatar de Usuario
tonapar1
 
Mensajes: 5651
Registrado: 16 Oct 2012 20:19
Agradecido : 1124 veces
Agradecimiento recibido: 1950 veces

Re: Mio Caro Assassino (Tonino Valerii, 1972) BRRip Dual

Mensaje por tonapar1 » 04 May 2021 17:57

https://www.opensubtitles.org/es/subtit ... sassino-en

Subs en ingles que cuadran bien con el ripeo. Cortesia de spaceboss

Responder

Volver a “Largos Modernos”