Rugantino (Pasquale Festa Campanile, 1973) WEB-DL 1080p VOSE

Puntuación
Sin
puntuar

Moderador: Monsieur Lange

Responder
Avatar de Usuario
jotarapidup
 
Mensajes: 1147
Registrado: 02 Oct 2012 21:05
Ubicación: Valdivia, Chile.
Agradecido : 396 veces
Agradecimiento recibido: 987 veces

Italia Rugantino (Pasquale Festa Campanile, 1973) WEB-DL 1080p VOSE

Mensaje por jotarapidup » 03 May 2021 08:54

Imagen

RUGANTINO

IMDB

En tiempos en los que Roma vivía bajo la tiranía de un cruel gobernador, Rugantino cruzó con sus amigos una arriesgada apuesta: sería capaz de seducir a la bella Rosetta, casada con un hombre tan violento como celoso. El primer asalto lo acabó Rugantino con un dedo roto. El siguiente consistió en sustituir al modelo que debía posar junto a Rosetta, ambos desnudos, para un famoso escultor. A los pocos días, los dedos rotos de Rugantino eran ya dos. (FILMAFFINITY)

Título original
Rugantino

Año
1973

Duración
110 min.

País
Italia

Dirección
Pasquale Festa Campanile

Guion
Massimo Franciosa, Pietro Garinei, Sandro Giovannini, Pasquale Festa Campanile

Música
Armando Trovajoli

Fotografía
Gastone Di Giovanni

Reparto
Adriano Celentano, Claudia Mori, Toni Ucci, Maria Grazia Spina, Riccardo Garrone, Renzo Palmer, Sergio Tofano, Guglielmo Spoletini, Alvaro Vitali, Paolo Stoppa
Productora

Clan Film, Filmes Cinematografica

Género
Comedia

Imagen

Imagen

Imagen

Imagen

Imagen

Imagen

Imagen

Código: Seleccionar todo

General
Unique ID                                : 148225685329423542247760966926060098 (0x1C8C172C42E2885FAB689F97EDCA42)
Complete name                            : C:\Users\Downloads\eMule\Incoming\Rugantino (1973).WEB-DL.1080p.x264.(English.French.Spanish.and.other.subtitles).mkv
Format                                   : Matroska
Format version                           : Version 4
File size                                : 10.2 GiB
Duration                                 : 1 h 50 min
Overall bit rate                         : 13.3 Mb/s
Encoded date                             : UTC 2021-04-28 17:29:54
Writing application                      : mkvmerge v55.0.0 ('Waiting For Space') 64-bit
Writing library                          : libebml v1.4.2 + libmatroska v1.6.4

Video
ID                                       : 1
Format                                   : AVC
Format/Info                              : Advanced Video Codec
Format profile                           : High@L4
Format settings                          : CABAC / 4 Ref Frames
Format settings, CABAC                   : Yes
Format settings, Reference frames        : 4 frames
Codec ID                                 : V_MPEG4/ISO/AVC
Duration                                 : 1 h 50 min
Bit rate                                 : 13.0 Mb/s
Width                                    : 1 920 pixels
Height                                   : 816 pixels
Display aspect ratio                     : 2.35:1
Frame rate mode                          : Constant
Frame rate                               : 24.000 FPS
Color space                              : YUV
Chroma subsampling                       : 4:2:0
Bit depth                                : 8 bits
Scan type                                : Progressive
Bits/(Pixel*Frame)                       : 0.347
Stream size                              : 10.1 GiB (98%)
Default                                  : Yes
Forced                                   : No
Color range                              : Limited
Color primaries                          : BT.709
Transfer characteristics                 : BT.709
Matrix coefficients                      : BT.709

Audio
ID                                       : 2
Format                                   : E-AC-3
Format/Info                              : Enhanced AC-3
Commercial name                          : Dolby Digital Plus
Codec ID                                 : A_EAC3
Duration                                 : 1 h 50 min
Bit rate mode                            : Constant
Bit rate                                 : 224 kb/s
Channel(s)                               : 2 channels
Channel layout                           : L R
Sampling rate                            : 48.0 kHz
Frame rate                               : 31.250 FPS (1536 SPF)
Compression mode                         : Lossy
Stream size                              : 177 MiB (2%)
Language                                 : Italian
Service kind                             : Complete Main
Default                                  : Yes
Forced                                   : No

Text #1
ID                                       : 3
Format                                   : UTF-8
Codec ID                                 : S_TEXT/UTF8
Codec ID/Info                            : UTF-8 Plain Text
Duration                                 : 1 h 48 min
Bit rate                                 : 54 b/s
Count of elements                        : 1268
Stream size                              : 43.8 KiB (0%)
Language                                 : English
Default                                  : Yes
Forced                                   : No

Text #2
ID                                       : 4
Format                                   : UTF-8
Codec ID                                 : S_TEXT/UTF8
Codec ID/Info                            : UTF-8 Plain Text
Duration                                 : 1 h 47 min
Bit rate                                 : 61 b/s
Count of elements                        : 1525
Stream size                              : 48.6 KiB (0%)
Language                                 : Italian
Default                                  : No
Forced                                   : No

Text #3
ID                                       : 5
Format                                   : UTF-8
Codec ID                                 : S_TEXT/UTF8
Codec ID/Info                            : UTF-8 Plain Text
Duration                                 : 1 h 48 min
Bit rate                                 : 62 b/s
Count of elements                        : 1271
Stream size                              : 49.5 KiB (0%)
Language                                 : French
Default                                  : No
Forced                                   : No

Text #4
ID                                       : 6
Format                                   : UTF-8
Codec ID                                 : S_TEXT/UTF8
Codec ID/Info                            : UTF-8 Plain Text
Duration                                 : 1 h 48 min
Bit rate                                 : 61 b/s
Count of elements                        : 1269
Stream size                              : 48.9 KiB (0%)
Language                                 : Spanish
Default                                  : No
Forced                                   : No

Text #5
ID                                       : 7
Format                                   : UTF-8
Codec ID                                 : S_TEXT/UTF8
Codec ID/Info                            : UTF-8 Plain Text
Duration                                 : 1 h 48 min
Bit rate                                 : 59 b/s
Count of elements                        : 1291
Stream size                              : 47.1 KiB (0%)
Language                                 : Portuguese
Default                                  : No
Forced                                   : No

Text #6
ID                                       : 8
Format                                   : UTF-8
Codec ID                                 : S_TEXT/UTF8
Codec ID/Info                            : UTF-8 Plain Text
Duration                                 : 1 h 48 min
Bit rate                                 : 60 b/s
Count of elements                        : 1282
Stream size                              : 48.2 KiB (0%)
Language                                 : German
Default                                  : No
Forced                                   : No

Text #7
ID                                       : 9
Format                                   : UTF-8
Codec ID                                 : S_TEXT/UTF8
Codec ID/Info                            : UTF-8 Plain Text
Duration                                 : 1 h 48 min
Bit rate                                 : 53 b/s
Count of elements                        : 1268
Stream size                              : 42.9 KiB (0%)
Language                                 : Romanian
Default                                  : No
Forced                                   : No

Text #8
ID                                       : 10
Format                                   : UTF-8
Codec ID                                 : S_TEXT/UTF8
Codec ID/Info                            : UTF-8 Plain Text
Duration                                 : 1 h 48 min
Bit rate                                 : 96 b/s
Count of elements                        : 1266
Stream size                              : 77.4 KiB (0%)
Language                                 : Greek
Default                                  : No
Forced                                   : No

Text #9
ID                                       : 11
Format                                   : UTF-8
Codec ID                                 : S_TEXT/UTF8
Codec ID/Info                            : UTF-8 Plain Text
Duration                                 : 1 h 48 min
Bit rate                                 : 63 b/s
Count of elements                        : 1282
Stream size                              : 50.4 KiB (0%)
Language                                 : Hungarian
Default                                  : No
Forced                                   : No

Text #10
ID                                       : 12
Format                                   : UTF-8
Codec ID                                 : S_TEXT/UTF8
Codec ID/Info                            : UTF-8 Plain Text
Duration                                 : 1 h 48 min
Bit rate                                 : 109 b/s
Count of elements                        : 1269
Stream size                              : 87.1 KiB (0%)
Language                                 : Russian
Default                                  : No
Forced                                   : No

Text #11
ID                                       : 13
Format                                   : UTF-8
Codec ID                                 : S_TEXT/UTF8
Codec ID/Info                            : UTF-8 Plain Text
Duration                                 : 1 h 48 min
Bit rate                                 : 58 b/s
Count of elements                        : 1254
Stream size                              : 46.4 KiB (0%)
Language                                 : Dutch
Default                                  : No
Forced                                   : No

Text #12
ID                                       : 14
Format                                   : UTF-8
Codec ID                                 : S_TEXT/UTF8
Codec ID/Info                            : UTF-8 Plain Text
Duration                                 : 1 h 48 min
Bit rate                                 : 54 b/s
Count of elements                        : 1244
Stream size                              : 43.1 KiB (0%)
Language                                 : Polish
Default                                  : No
Forced                                   : No

Text #13
ID                                       : 15
Format                                   : UTF-8
Codec ID                                 : S_TEXT/UTF8
Codec ID/Info                            : UTF-8 Plain Text
Duration                                 : 1 h 48 min
Bit rate                                 : 59 b/s
Count of elements                        : 1235
Stream size                              : 47.6 KiB (0%)
Language                                 : Finnish
Default                                  : No
Forced                                   : No

Text #14
ID                                       : 16
Format                                   : UTF-8
Codec ID                                 : S_TEXT/UTF8
Codec ID/Info                            : UTF-8 Plain Text
Duration                                 : 1 h 48 min
Bit rate                                 : 52 b/s
Count of elements                        : 1289
Stream size                              : 41.5 KiB (0%)
Language                                 : Croatian
Default                                  : No
Forced                                   : No

Text #15
ID                                       : 17
Format                                   : UTF-8
Codec ID                                 : S_TEXT/UTF8
Codec ID/Info                            : UTF-8 Plain Text
Duration                                 : 1 h 48 min
Bit rate                                 : 57 b/s
Count of elements                        : 1215
Stream size                              : 46.1 KiB (0%)
Language                                 : Swedish
Default                                  : No
Forced                                   : No

Text #16
ID                                       : 18
Format                                   : UTF-8
Codec ID                                 : S_TEXT/UTF8
Codec ID/Info                            : UTF-8 Plain Text
Duration                                 : 1 h 48 min
Bit rate                                 : 55 b/s
Count of elements                        : 1291
Stream size                              : 44.5 KiB (0%)
Language                                 : Turkish
Default                                  : No
Forced                                   : No

Text #17
ID                                       : 19
Format                                   : UTF-8
Codec ID                                 : S_TEXT/UTF8
Codec ID/Info                            : UTF-8 Plain Text
Duration                                 : 1 h 48 min
Bit rate                                 : 53 b/s
Count of elements                        : 1271
Stream size                              : 42.9 KiB (0%)
Language                                 : Czech
Default                                  : No
Forced                                   : No

Text #18
ID                                       : 20
Format                                   : UTF-8
Codec ID                                 : S_TEXT/UTF8
Codec ID/Info                            : UTF-8 Plain Text
Duration                                 : 1 h 48 min
Bit rate                                 : 55 b/s
Count of elements                        : 1268
Stream size                              : 44.2 KiB (0%)
Language                                 : Norwegian Bokmal
Default                                  : No
Forced                                   : No

Text #19
ID                                       : 21
Format                                   : UTF-8
Codec ID                                 : S_TEXT/UTF8
Codec ID/Info                            : UTF-8 Plain Text
Duration                                 : 1 h 48 min
Bit rate                                 : 54 b/s
Count of elements                        : 1269
Stream size                              : 43.6 KiB (0%)
Language                                 : Danish
Default                                  : No
Forced                                   : No

Compartida por aoex en KG. La copia lleva subtitulos en español y otros idiomas dentro del contenedor.
Desconfiad de las personas que nunca ríen, no son personas serias. (Julio César)

Avatar de Usuario
eddelon
 
Mensajes: 2282
Registrado: 28 Oct 2012 01:05
Ubicación: Buenos Aires,Argentina
Agradecido : 2235 veces
Agradecimiento recibido: 385 veces

Re: Rugantino (Pasquale Festa Campanile, 1973) WEB-DL 1080p VOSE

Mensaje por eddelon » 03 May 2021 12:41

Avanti, Jota, grazie mille!!! :aplauso:

Responder

Volver a “Largos Modernos”