Perché Quelle Strane Gocce Di Sangue Sul Corpo Di Jennifer? (Giuliano Carnimeo,1972) BRRip Dual

Puntuación
Sin
puntuar

Las Lágrimas De Jennifer.

Moderador: Monsieur Lange

Responder
Avatar de Usuario
locotus
 
Mensajes: 1010
Registrado: 16 Oct 2012 18:18
Agradecido : 53 veces
Agradecimiento recibido: 6065 veces

Italia Perché Quelle Strane Gocce Di Sangue Sul Corpo Di Jennifer? (Giuliano Carnimeo,1972) BRRip Dual

Mensaje por locotus » 04 May 2021 03:07

- Perché quelle strane gocce di sangue sul corpo di Jennifer?
- Las Lágrimas De Jennifer - The Case of the Bloody Iris -
Imagen

Directed by Giuliano Carnimeo ... (as Anthony Ascott)

Writing Credits:
Ernesto Gastaldi ... (screenplay & story) (as Ernesto Gastaldy)

Cast:
Edwige Fenech ... Jennifer Lansbury
George Hilton ... Andrea Antinori
Paola Quattrini ... Marilyn Ricci
Giampiero Albertini ... Commissioner Enci
Franco Agostini ... Assistant Commissioner Renzi
Oreste Lionello ... Arthur - Photographer
Ben Carra ... Adam - Jennifer's Ex-Husband (as Ben Carrá)
Carla Brait ... Mizar Harrington
Annabella Incontrera... Sheila Heindricks

Runtime: 94 min
Sound Mix: Mono (Westrex Sound System)
Color: Color (Eastmancolor)
Aspect Ratio: 2.35 : 1

https://www.imdb.com/title/tt0069073/

Sinopsis
Cuando dos mujeres son asesinadas en un lujoso edificio, una hermosa modelo se muda a
una de los apartamentos vacantes y empieza a ser acosada por un hombre enmascarado, su
marido se vuelve inesperadamente violento y a su alrededor comienzan a sucederse asesinatos. (FILMAFFINITY)

Capturas:

ImagenImagenImagenImagen

ImagenImagenImagenImagen
Datos:

Código: Seleccionar todo

General
Unique ID                   : 189222448234435967340442593608012434958 (0x8E5AEAFCD6705042D983A07183A08E0E)
Complete name               : Perché Quelle Strane Gocce Di Sangue Sul Corpo Di Jennifer (1972) BRRip.Dual.mkv
Format                      : Matroska
Format version              : Version 4
File size                   : 1.87 GiB
Duration                    : 1 h 34 min
Overall bit rate            : 2 823 kb/s
Encoded date                : UTC 2021-05-04 00:42:21
Writing application         : mkvmerge v56.1.0 ('My Friend') 64-bit
Writing library             : libebml v1.4.2 + libmatroska v1.6.4

Video
ID                          : 1
Format                      : AVC
Format/Info                 : Advanced Video Codec
Format profile              : High@L4.1
Format settings             : CABAC / 4 Ref Frames
Format settings, CABAC      : Yes
Format settings, Reference  : 4 frames
Codec ID                    : V_MPEG4/ISO/AVC
Duration                    : 1 h 34 min
Bit rate                    : 2 500 kb/s
Width                       : 1 920 pixels
Height                      : 816 pixels
Display aspect ratio        : 2.35:1
Frame rate mode             : Constant
Frame rate                  : 23.976 (23976/1000) FPS
Color space                 : YUV
Chroma subsampling          : 4:2:0
Bit depth                   : 8 bits
Scan type                   : Progressive
Bits/(Pixel*Frame)          : 0.067
Stream size                 : 1.65 GiB (89%)
Writing library             : x264 core 152 r2851M ba24899
Encoding settings           : cabac=1 / ref=4 / deblock=1:-1:-1 / analyse=0x3:0x113 / me=umh / subme=9 / psy=1 / psy_rd=1.00:0.15 / mixed_ref=1 / me_range=24 / chroma_me=1 / trellis=2 / 8x8dct=1 / cqm=0 / deadzone=21,11 / fast_pskip=1 / chroma_qp_offset=-3 / threads=16 / lookahead_threads=4 / sliced_threads=0 / nr=0 / decimate=1 / interlaced=0 / bluray_compat=0 / constrained_intra=0 / bframes=3 / b_pyramid=2 / b_adapt=2 / b_bias=0 / direct=3 / weightb=1 / open_gop=0 / weightp=2 / keyint=250 / keyint_min=25 / scenecut=40 / intra_refresh=0 / rc_lookahead=50 / rc=2pass / mbtree=1 / bitrate=2500 / ratetol=1.0 / qcomp=0.60 / qpmin=0 / qpmax=69 / qpstep=4 / cplxblur=20.0 / qblur=0.5 / vbv_maxrate=31250 / vbv_bufsize=31250 / nal_hrd=none / filler=0 / ip_ratio=1.40 / aq=3:1.00
Default                     : Yes
Forced                      : No

Audio #1
ID                          : 2
Format                      : AAC LC
Format/Info                 : Advanced Audio Codec Low Complexity
Codec ID                    : A_AAC-2
Duration                    : 1 h 34 min
Bit rate                    : 224 kb/s
Channel(s)                  : 2 channels
Channel layout              : L R
Sampling rate               : 48.0 kHz
Frame rate                  : 46.875 FPS (1024 SPF)
Compression mode            : Lossy
Delay relative to video     : -43 ms
Stream size                 : 152 MiB (8%)
Language                    : Italian
Default                     : Yes
Forced                      : No

Audio #2
ID                          : 3
Format                      : AAC LC
Format/Info                 : Advanced Audio Codec Low Complexity
Codec ID                    : A_AAC-2
Duration                    : 1 h 34 min
Bit rate                    : 96.0 kb/s
Channel(s)                  : 2 channels
Channel layout              : L R
Sampling rate               : 48.0 kHz
Frame rate                  : 46.875 FPS (1024 SPF)
Compression mode            : Lossy
Delay relative to video     : -43 ms
Stream size                 : 65.0 MiB (3%)
Language                    : English
Default                     : No
Forced                      : No

Text
ID                          : 4
Format                      : VobSub
Muxing mode                 : zlib
Codec ID                    : S_VOBSUB
Codec ID/Info               : Picture based subtitle format used on DVDs
Duration                    : 12 s 922 ms
Bit rate                    : 14.8 kb/s
Count of elements           : 3
Stream size                 : 23.3 KiB (0%)
Language                    : Spanish
Default                     : Yes
Forced                      : No
Archivo original del grupo VXT, audio y video untouched.
Audio español y subs forzados tomados de un rip de Ungo.

Película:
eD2K link Perché Quelle Strane Gocce Di Sangue Sul Corpo Di Jennifer (1972) BRRip.Dual.mkv [1.87 Gb] 
“Si no lees los periódicos estás desinformado”.
Y si los lees estás mal informado”.
Denzel Washington.

Avatar de Usuario
jotarapidup
 
Mensajes: 1147
Registrado: 02 Oct 2012 21:05
Ubicación: Valdivia, Chile.
Agradecido : 396 veces
Agradecimiento recibido: 987 veces

Re: Perché Quelle Strane Gocce Di Sangue Sul Corpo Di Jennifer? (1972) BRRip Dual

Mensaje por jotarapidup » 04 May 2021 03:39

Muchas gracias ;)
Desconfiad de las personas que nunca ríen, no son personas serias. (Julio César)

Avatar de Usuario
professor keller
 
Mensajes: 4905
Registrado: 03 Oct 2012 10:07
Agradecido : 346 veces
Agradecimiento recibido: 1602 veces

Re: Perché Quelle Strane Gocce Di Sangue Sul Corpo Di Jennifer? (1972) BRRip Dual

Mensaje por professor keller » 04 May 2021 09:24

Gran giallo de Carnimeo, una joyita. Hay subs en español adaptados al bluray que probablemente encajen con este ripeo.
¿Quiere acosar a los usuarios pero no sabe cómo? ¡Consígase un CAZATROLS y acose sin culpas por todas partes!

Avatar de Usuario
tonapar1
 
Mensajes: 5651
Registrado: 16 Oct 2012 20:19
Agradecido : 1124 veces
Agradecimiento recibido: 1949 veces

Re: Perché Quelle Strane Gocce Di Sangue Sul Corpo Di Jennifer? (Giuliano Carnimeo,1972) BRRip Dual

Mensaje por tonapar1 » 04 May 2021 11:49

Muchas gracias por el ripeo y los subs a locotus y a grupo vxt, asi como al professor keller por los subs. Vaya cosecha de cine italiano de todas las epocas que nos estais poniendo. Estoy mejorando un monton de copias y consiguiendo ineditos

Avatar de Usuario
Graveland
 
Mensajes: 4368
Registrado: 22 Nov 2012 15:30
Agradecido : 2975 veces
Agradecimiento recibido: 3949 veces

Re: Perché Quelle Strane Gocce Di Sangue Sul Corpo Di Jennifer? (Giuliano Carnimeo,1972) BRRip Dual

Mensaje por Graveland » 04 May 2021 12:42

Muchas gracias a todos.

Responder

Volver a “Largos Modernos”