I grandi condottieri (M. Baldi, F. Pérez-Dolz, 1965) SATRip VESE

Puntuación
Sin
puntuar

Los jueces de la Biblia (Gedeón y Sansón) (Doblaje Cines 1967)

Moderador: Monsieur Lange

Responder
Avatar de Usuario
DCINE
 
Mensajes: 1762
Registrado: 30 Jul 2016 20:09
Agradecido : 794 veces
Agradecimiento recibido: 3705 veces

Italia I grandi condottieri (M. Baldi, F. Pérez-Dolz, 1965) SATRip VESE

Mensaje por DCINE » 22 Jul 2021 06:12

Los jueces de la Biblia
(Gedeón y Sansón)
(I grandi condottieri)

1954

Imagen



DIRECTOR: Marcello Baldi, Francisco Pérez-Dolz
PRODUCTORA: San Pablo Films
GUIÓN: Marcello Baldi, Tonino Guerra, Ottavio Jemma, Flavio Niccolini
MÚSICA: Teo Usuelli
FOTOGRAFÍA: Marcello Masciocchi


ImagenImagen

ARGUMENTO Con Josué y los demás Jueces, el pueblo de Israel vivió largos años de opresión. No obstante, el convencimiento de ser el pueblo elegido hizo que los israelitas los consideraran guías enviados por el cielo para mantener encendida la llama de la fe. Dos de esos jueces fueron Gedeón y Sansón. (FILMAFFINITY) IMDB: https://www.imdb.com/title/tt0060570/

ImagenImagenImagen
Imagen


Reparto: Ivo Garrani, Anton Geesink, Rosalba Neri, Fernando Rey, Sergio Ammirata, Barta Barri, Giorgio Cerioni, Consalvo Dell'Arti, Lucio De Santis, Beni Deus, Mirko Ellis, Maruchi Fresno



Datos técnicos



Código: Seleccionar todo

General:
Complete name                    : 1965 Los jueces de la Biblia (Gedeón y Sansón) (I grandi condottieri) (Baldi, Pérez-Dolz) SATRip VE (Doblaje Cines 1967) SE RTVE by DCINE.mkv
Format                           : Matroska
Format version                   : Version 4 / Version 2
File size                        : 1.97 GiB
Duration                         : 1h 40mn
Overall bit rate                 : 2 814 Kbps
Movie name                       : 1965 Los jueces de la Biblia (Gedeón y Sansón)/I grandi condottieri (Marcello Baldi, Francisco Pérez-Dolz, 1965) SATRip VE (Doblaje Cines 1967) SE RTVE by DCINE.mkv
Encoded date                     : UTC 2021-07-02 17:18:29
Writing application              : mkvmerge v7.1.0 ('Good Love') 32bit built on Jul 27 2014 12:59:18
Writing library                  : libebml v1.3.0 + libmatroska v1.4.1
DURATION                         : 01:40:09.720000000
NUMBER_OF_FRAMES                 : 874
NUMBER_OF_BYTES                  : 55145
_STATISTICS_WRITING_APP          : mkvmerge v7.1.0 ('Good Love') 32bit built on Jul 27 2014 12:59:18
_STATISTICS_WRITING_DATE_UTC     : 2021-07-02 17:18:29
_STATISTICS_TAGS                 : BPS DURATION NUMBER_OF_FRAMES NUMBER_OF_BYTES

Video
ID                               : 1
Format                           : AVC
Format/Info                      : Advanced Video Codec
Format profile                   : Main@L4.1
Format settings, CABAC           : Yes
Format settings, ReFrames        : 16 frames
Codec ID                         : V_MPEG4/ISO/AVC
Duration                         : 1h 40mn
Bit rate                         : 2 566 Kbps
Width                            : 716 pixels
Height                           : 568 pixels
Display aspect ratio             : 16:9
Frame rate mode                  : Variable
Frame rate                       : 25.000 fps
Color space                      : YUV
Chroma subsampling               : 4:2:0
Bit depth                        : 8 bits
Scan type                        : Progressive
Bits/(Pixel*Frame)               : 0.252
Stream size                      : 1.80 GiB (91%)
Writing library                  : x264 core 157 r2935 545de2f
Encoding settings                : cabac=1 / ref=16 / deblock=1:0:0 / analyse=0x1:0x131 / me=umh / subme=10 / psy=1 / psy_rd=1.00:0.00 / mixed_ref=1 / me_range=24 / chroma_me=1 / trellis=2 / 8x8dct=0 / cqm=0 / deadzone=21,11 / fast_pskip=1 / chroma_qp_offset=-2 / threads=12 / lookahead_threads=2 / sliced_threads=0 / nr=0 / decimate=1 / interlaced=0 / bluray_compat=0 / constrained_intra=0 / bframes=8 / b_pyramid=2 / b_adapt=2 / b_bias=0 / direct=3 / weightb=1 / open_gop=0 / weightp=2 / keyint=250 / keyint_min=25 / scenecut=40 / intra_refresh=0 / rc_lookahead=60 / rc=crf / mbtree=1 / crf=19.0 / qcomp=0.60 / qpmin=0 / qpmax=69 / qpstep=4 / vbv_maxrate=50000 / vbv_bufsize=62500 / crf_max=0.0 / nal_hrd=none / filler=0 / ip_ratio=1.40 / aq=1:1.00
Default                          : Yes
Forced                           : No
DURATION                         : 01:40:24.280000000
NUMBER_OF_FRAMES                 : 150607
NUMBER_OF_BYTES                  : 1972958157
_STATISTICS_WRITING_APP          : mkvmerge v7.1.0 ('Good Love') 32bit built on Jul 27 2014 12:59:18
_STATISTICS_WRITING_DATE_UTC     : 2021-07-02 17:18:29
_STATISTICS_TAGS                 : BPS DURATION NUMBER_OF_FRAMES NUMBER_OF_BYTES
Color primaries                  : BT.470-6 System B, BT.470-6 System G, BT.601-6 625, BT.1358 625, BT.1700 625 PAL, BT.1700 625 SECAM
Transfer characteristics         : BT.709-5, BT.1361
Matrix coefficients              : BT.601-6 525, BT.1358 525, BT.1700 NTSC, SMPTE 170M

Audio
ID                               : 2
Format                           : MPEG Audio
Format version                   : Version 1
Format profile                   : Layer 2
Codec ID                         : A_MPEG/L2
Codec ID/Hint                    : MP2
Duration                         : 1h 40mn
Bit rate mode                    : Constant
Bit rate                         : 192 Kbps
Channel(s)                       : 2 channels
Sampling rate                    : 48.0 KHz
Compression mode                 : Lossy
Delay relative to video          : 22ms
Stream size                      : 138 MiB (7%)
Title                            : Doblaje Cines 1967
Language                         : Spanish
Default                          : Yes
Forced                           : No
DURATION                         : 01:40:24.360000000
NUMBER_OF_FRAMES                 : 251015
NUMBER_OF_BYTES                  : 144584640
_STATISTICS_WRITING_APP          : mkvmerge v7.1.0 ('Good Love') 32bit built on Jul 27 2014 12:59:18
_STATISTICS_WRITING_DATE_UTC     : 2021-07-02 17:18:29
_STATISTICS_TAGS                 : BPS DURATION NUMBER_OF_FRAMES NUMBER_OF_BYTES

Text
ID                               : 3
Format                           : UTF-8
Codec ID                         : S_TEXT/UTF8
Codec ID/Info                    : UTF-8 Plain Text
Title                            : Sordos
Language                         : Spanish
Default                          : No
Forced                           : No


Capturas:

Imagen Imagen
Imagen Imagen
Imagen Imagen
Imagen Imagen
Imagen Imagen




Enlace:
eD2K link 1965 Los jueces de la Biblia (Gedeón y Sansón) (I grandi condottieri) (Baldi, P...TVE by DCINE.mkv [1.97 Gb] 

Avatar de Usuario
Eddie Constanti
 
Mensajes: 6127
Registrado: 05 Ago 2013 21:31
Ubicación: Vallès Oriental
Agradecido : 308 veces
Agradecimiento recibido: 4175 veces

Re: I grandi condottieri (M. Baldi, F. Pérez-Dolz, 1965) SATRip VESE

Mensaje por Eddie Constanti » 22 Jul 2021 10:56

Paco (Pérez-Dolz) se me quejaba a menudo de que en esta película lo habían contratado como "hombre de paja" para cubrir gastos. A la hora de la verdad, apenas le dejaron meter mano en el montaje. Todo el resto de la producción corrió a cargo de los italianos.

Responder

Volver a “Largos Modernos”